<?xml version="1.0" standalone="no"?>
<!DOCTYPE svg PUBLIC "-//W3C//DTD SVG 1.1//EN" "http://www.w3.org/Graphics/SVG/1.1/DTD/svg11.dtd" >
<svg xmlns="http://www.w3.org/2000/svg" xmlns:xlink="http://www.w3.org/1999/xlink" version="1.1">
<metadata>
Created by FontForge 20190801 at Thu Jun 15 21:53:12 2017
 By root
(c) Copyright 1999-2000 as an unpublished work by Galapagos Design Group, Inc. All rights reserved
</metadata>
<defs>
<font id="ZapfDingbatsITC" horiz-adv-x="1614" >
  <font-face 
    font-family="Zapf Dingbats"
    font-weight="400"
    font-stretch="normal"
    units-per-em="2048"
    panose-1="5 2 1 2 1 7 4 2 6 9"
    ascent="1638"
    descent="-410"
    bbox="0 -293 1999 1667"
    underline-thickness="123"
    underline-position="-266"
    unicode-range="U+0008-F87F"
  />
<missing-glyph horiz-adv-x="1024" 
d="M100 -293v1737h824v-1737h-824zM215 -179h595v1508h-595v-1508z" />
    <glyph glyph-name=".notdef" horiz-adv-x="1024" 
d="M100 -293v1737h824v-1737h-824zM215 -179h595v1508h-595v-1508z" />
    <glyph glyph-name=".null" horiz-adv-x="0" 
 />
    <glyph glyph-name=".null" horiz-adv-x="0" 
 />
    <glyph glyph-name=".null" horiz-adv-x="0" 
 />
    <glyph glyph-name="nonmarkingreturn" unicode="&#xa;" horiz-adv-x="569" 
 />
    <glyph glyph-name="nonmarkingreturn" unicode="&#xd;" horiz-adv-x="569" 
 />
    <glyph glyph-name="space" unicode="&#x9;" horiz-adv-x="569" 
d="M0 0z" />
    <glyph glyph-name="space" unicode=" " horiz-adv-x="569" 
d="M0 0z" />
    <glyph glyph-name="a1" unicode="&#x2701;" horiz-adv-x="1995" 
d="M1927 578l-862 -103l207 -235l-195 -21l-207 242q-106 -11 -197 -16t-173 -5h-41q16 -29 24.5 -57t8.5 -53q0 -81 -57 -135t-142 -54q-96 0 -165 65.5t-69 155.5q0 78 53.5 126.5t139.5 48.5q41 0 123 -19.5t123 -19.5q66 0 130.5 30.5t131.5 94.5q-56 92 -138.5 153
t-188.5 88q-35 9 -97 23t-80 22q-60 28 -93.5 75.5t-33.5 107.5q0 78 56.5 129t144.5 51q91 0 154 -63t63 -154q0 -39 -16 -73.5t-50 -66.5q128 -36 225.5 -95.5t163.5 -141.5q327 23 448 30t177 7q141 0 243.5 -33t188.5 -104zM481 1061q0 65 -44 108t-111 43
q-58 0 -94.5 -33t-36.5 -85q0 -60 51.5 -105t120.5 -45q53 0 83.5 31.5t30.5 85.5zM424 328q0 62 -47.5 105.5t-116.5 43.5q-60 0 -98.5 -33.5t-38.5 -85.5q0 -64 49.5 -110.5t118.5 -46.5q58 0 95.5 35.5t37.5 91.5z" />
    <glyph glyph-name="a2" unicode="&#x2702;" horiz-adv-x="1968" 
d="M1905 420q-47 -44 -93.5 -64t-101.5 -20q-80 0 -280.5 65t-567.5 211q-128 -55 -262.5 -81.5t-134.5 -38.5q0 -4 0.5 -6t1.5 -3q18 -34 26.5 -64t8.5 -59q0 -83 -61.5 -138.5t-155.5 -55.5q-96 0 -156.5 59t-60.5 152q0 98 76.5 150.5t220.5 52.5h81q134 0 193.5 29
t83.5 102q-23 72 -83.5 101.5t-193.5 29.5h-81q-144 0 -220.5 52t-76.5 150q0 93 60.5 152t156.5 59q94 0 155.5 -55.5t61.5 -138.5q0 -29 -8.5 -59t-26.5 -64q-1 -2 -1.5 -4t-0.5 -4q0 -13 134.5 -39.5t262.5 -81.5q380 150 574.5 213t273.5 63q54 0 101.5 -20t93.5 -64
l-779 -290zM436 1049q0 60 -43 100.5t-108 40.5q-67 0 -108.5 -38.5t-41.5 -98.5q0 -63 44 -103.5t114 -40.5q64 0 103.5 39t39.5 101zM436 373q0 61 -40 100t-103 39q-68 0 -113 -41t-45 -102t41.5 -99.5t108.5 -38.5q65 0 108 40.5t43 101.5z" />
    <glyph glyph-name="a202" unicode="&#x2703;" horiz-adv-x="1995" 
d="M1927 836q-85 -71 -187 -103.5t-245 -32.5q-87 0 -523 29q-67 4 -101 6q-67 -82 -164.5 -141.5t-225.5 -95.5q34 -34 50 -68t16 -72q0 -91 -63 -154t-154 -63q-88 0 -144.5 51t-56.5 130q0 48 24 91t66 70q41 27 159 54q38 9 58 14q104 27 187 88t137 152q-66 62 -131 93
t-131 31q-41 0 -123 -18t-123 -18q-87 0 -140 47.5t-53 126.5q0 90 69 154.5t165 64.5q85 0 142 -53.5t57 -133.5q0 -26 -8.5 -54t-24.5 -58h51q89 0 179 -4.5t182 -13.5l206 239l195 -18l-207 -236zM424 1085q0 56 -38 92.5t-95 36.5q-69 0 -118.5 -47t-49.5 -110
q0 -52 38.5 -86.5t98.5 -34.5q69 0 116.5 43.5t47.5 105.5zM481 354q0 53 -30.5 84t-83.5 31q-69 0 -120.5 -44.5t-51.5 -102.5q0 -52 36.5 -85.5t94.5 -33.5q67 0 111 43t44 108z" />
    <glyph glyph-name="a3" unicode="&#x2704;" horiz-adv-x="2007" 
d="M1944 1092l-656 -385l631 -410q-67 -70 -136 -103.5t-147 -33.5q-100 0 -257 78.5t-431 267.5l-110 -61q-40 9 -69 13.5t-50 4.5q-25 0 -49.5 -4t-48.5 -13q29 -45 44 -88.5t15 -85.5q0 -120 -85 -196t-220 -76q-137 0 -222 85.5t-85 223.5t82.5 210.5t264.5 92.5
q22 3 60 6q219 22 219 91q0 58 -163 68q-83 5 -134 11q-166 20 -251 98t-85 210t88.5 219.5t223.5 87.5q134 0 220.5 -76t86.5 -192q0 -42 -14.5 -82.5t-44.5 -85.5q18 -5 36.5 -8t34.5 -3q28 0 81.5 12.5t78.5 12.5q29 0 56 -11.5t55 -35.5q251 166 412.5 237.5t279.5 71.5
q89 0 159 -36.5t130 -114.5zM1837 287l-606 385l-230 -135q243 -172 394.5 -247t251.5 -75q49 0 96 17.5t94 54.5zM1864 1104q-46 41 -95 60.5t-106 19.5q-61 0 -136 -26t-163 -77l-616 -362q-18 -146 -286 -167q-23 -2 -36 -3q-165 -15 -235 -71.5t-70 -172.5
q0 -112 68.5 -182t179.5 -70q101 0 170 68t69 168q0 41 -15 81.5t-46 82.5q4 33 49.5 48t144.5 15q26 0 53 -1.5t56 -4.5zM905 899q-14 15 -35.5 22t-50.5 7q-26 0 -75.5 -11.5t-73.5 -11.5q-59 0 -90.5 14t-34.5 39q32 44 47.5 85t15.5 83q0 94 -69 159t-170 65
q-112 0 -183 -71.5t-71 -182.5q0 -89 54 -151t153 -83q67 -15 208.5 -20.5t186.5 -50.5zM1073 723q0 -40 -27.5 -68t-66.5 -28q-41 0 -68.5 27t-27.5 67t27.5 67t68.5 27q40 0 67 -26.5t27 -65.5zM551 1114q0 -74 -54.5 -127t-131.5 -53q-80 0 -130.5 51t-50.5 131
q0 73 53.5 124.5t131.5 51.5q75 0 128.5 -52t53.5 -126zM553 293q0 -75 -54 -126.5t-132 -51.5q-81 0 -132 49t-51 127q0 80 51.5 131t131.5 51q78 0 132 -52.5t54 -127.5zM1022 725q0 20 -14 34.5t-33 14.5q-22 0 -36.5 -15t-14.5 -36q0 -22 13.5 -35.5t35.5 -13.5
q18 0 33.5 15.5t15.5 35.5zM502 1112q0 50 -37.5 87.5t-87.5 37.5q-54 0 -91.5 -35.5t-37.5 -85.5q0 -52 38 -89.5t91 -37.5q50 0 87.5 37t37.5 86zM504 291q0 52 -36.5 89.5t-86.5 37.5q-55 0 -93 -36.5t-38 -88.5t35.5 -87.5t87.5 -35.5q54 0 92.5 36t38.5 85z" />
    <glyph glyph-name="a4" unicode="&#x260e;" horiz-adv-x="1473" 
d="M1405 829q-10 -42 -35.5 -57.5t-93.5 -15.5h-66q-60 0 -96.5 22.5t-42.5 62.5q46 -11 96 -16.5t107 -5.5q43 0 74 2.5t57 7.5zM1406 862q-23 -4 -48.5 -6t-54.5 -2q-68 0 -126 5.5t-110 17.5q-12 35 -37.5 55t-62.5 24q-6 -21 -8.5 -31.5t-2.5 -15.5q0 -42 55 -98
q19 -20 27 -31q39 -49 109 -242q32 -87 51 -137q0 -68 -4.5 -94t-15.5 -37q-100 -4 -208 -6t-233 -2q-124 0 -232 2t-209 7q-6 5 -10 12t-5 16q-3 28 -4 42t-1 26v34q18 47 49 131q71 196 111 248q9 12 30 33q52 55 52 96q0 6 -2 16t-8 31q-38 -4 -63 -24t-37 -55
q-52 -12 -110 -17.5t-126 -5.5q-31 0 -56.5 2t-47.5 6q3 78 25.5 128t66.5 77q68 42 224.5 68t352.5 26q200 0 356.5 -25.5t221.5 -66.5q44 -27 66.5 -78t24.5 -129zM403 841q-6 -40 -42.5 -62.5t-96.5 -22.5h-65q-70 0 -95.5 16t-33.5 57q25 -5 56 -7.5t75 -2.5
q56 0 106.5 5.5t95.5 16.5zM926 965q-64 8 -109 12t-80 4t-81.5 -4t-106.5 -12l35 -86h6q100 4 145 4t144 -4h12zM932 621q0 84 -56.5 142t-138.5 58q-80 0 -137 -58.5t-57 -141.5q0 -84 57 -142.5t137 -58.5q82 0 138.5 58t56.5 143z" />
    <glyph glyph-name="a5" unicode="&#x2706;" horiz-adv-x="1616" 
d="M1042 1222q49 -13 74 -41.5t25 -70.5q0 -66 -33.5 -119t-73.5 -53q-13 0 -32 5t-46 15q39 42 60.5 107.5t25.5 156.5zM288 248q-25 3 -48 22t-56 66q-52 76 -82 177.5t-30 203.5q0 144 55.5 274t163.5 236q104 103 236 157t280 54q147 0 280 -55t238 -158
q106 -105 162.5 -236.5t56.5 -275.5q0 -150 -55.5 -283t-161.5 -237q-105 -104 -239.5 -158.5t-284.5 -54.5q-185 0 -296.5 65.5t-111.5 173.5q0 30 12 57t37 54q-16 19 -24 42t-8 50q0 107 73.5 294t194.5 365q64 95 116 129.5t128 34.5h20q32 0 43.5 -10.5t11.5 -40.5
q0 -64 -21 -122.5t-57 -94.5q-52 -9 -79 -24.5t-49 -47.5q-59 -82 -99.5 -180t-40.5 -139q0 -22 8 -39.5t25 -32.5l8 -20q-23 -88 -76.5 -153t-91.5 -65q-12 1 -24 6.5t-25 16.5q-12 -16 -17 -32t-5 -36q0 -84 93 -135t251 -51q138 0 262 50.5t219 146.5q98 96 147.5 216.5
t49.5 262.5q0 127 -52 247t-147 214q-96 93 -216 141.5t-253 48.5q-135 0 -255 -49t-216 -143q-96 -97 -147.5 -221.5t-51.5 -262.5q0 -115 42.5 -220t129.5 -208l4 -10l-4 -6q-8 -2 -23 -4zM733 481q45 -30 60.5 -48.5t15.5 -39.5q0 -48 -53 -114t-92 -66q-15 0 -36 9
t-55 30q61 43 100.5 100.5t59.5 128.5z" />
    <glyph glyph-name="a119" unicode="&#x2707;" horiz-adv-x="1618" 
d="M1546 707q0 -151 -55 -284t-160 -237q-106 -106 -239.5 -161.5t-282.5 -55.5q-148 0 -282.5 56t-239.5 161t-160 238.5t-55 282.5q0 150 55 283.5t160 238.5q104 104 238.5 159.5t283.5 55.5q150 0 283.5 -55t238.5 -160t160 -238.5t55 -283.5zM1489 707q0 137 -51 260.5
t-148 220.5t-220 147.5t-261 50.5q-137 0 -261 -51t-220 -147q-97 -97 -148 -220.5t-51 -260.5q0 -138 51 -261.5t148 -220.5q96 -96 220 -147t261 -51t261 51t220 147q97 97 148 220.5t51 261.5zM958 938l-12 -8q-36 19 -70 29t-67 10q-34 0 -68.5 -10t-68.5 -29l-12 8
q7 129 23 228.5t32 126.5q9 14 25 20t51 6h36q35 0 51 -6t25 -21q15 -26 31.5 -125.5t23.5 -228.5zM1083 721q150 -100 218.5 -159t68.5 -89q0 -10 -5 -23.5t-17 -33.5l-19 -31l-1 -2q-32 -51 -62 -51q-33 0 -123 34.5t-209 94.5v14q65 40 101 100t36 130v10zM1014 707
q0 -86 -59.5 -145.5t-145.5 -59.5t-145.5 59.5t-59.5 145.5t59.5 145t145.5 59t145.5 -59t59.5 -145zM684 461q-125 -63 -211.5 -96t-124.5 -33q-14 0 -26 10t-33 43l-19 31q-12 20 -17 33.5t-5 23.5q0 29 70.5 90t216.5 158l12 -6v-10q0 -71 36 -131.5t101 -98.5v-14z" />
    <glyph glyph-name="a118" unicode="&#x2708;" horiz-adv-x="1620" 
d="M1143 788q226 0 326 -18.5t100 -60.5q0 -43 -97 -61.5t-329 -18.5l-150 -201h23q33 0 50 -10t17 -29t-17 -29t-50 -10h-80l-96 -131h22q33 0 50.5 -10t17.5 -29t-17.5 -29t-50.5 -10h-80q-56 -97 -108.5 -136.5t-122.5 -39.5h-21q107 222 170.5 390t63.5 220
q0 55 -185 65q-148 8 -253 22q-20 -15 -58 -64.5t-98 -138.5q-27 -7 -55.5 -12t-58.5 -9q29 71 48.5 132.5t30.5 117.5q-14 2 -30 7t-33 14q13 6 28.5 11t34.5 9q-12 58 -32 120.5t-48 129.5q47 -6 109 -19q4 -1 6 -2q60 -90 98 -139.5t57 -62.5q99 11 242 19q197 11 197 67
q0 51 -63 217t-171 393h21q70 0 122.5 -39.5t108.5 -136.5h80q33 0 50.5 -10t17.5 -29t-17.5 -29t-50.5 -10h-22l96 -131h80q33 0 50 -10t17 -29t-17 -29t-50 -10h-23z" />
    <glyph glyph-name="a117" unicode="&#x2709;" horiz-adv-x="1413" 
d="M1343 283h-1273v852h1273v-852zM1307 367v686l-428 -324q1 -4 1.5 -8t0.5 -12t-0.5 -12t-1.5 -8zM1305 1098h-1196l434 -330q22 54 65.5 84.5t98.5 30.5q54 0 97.5 -30.5t65.5 -84.5zM1307 319l-437 330q-26 -57 -67 -85.5t-96 -28.5q-56 0 -99.5 30t-64.5 84l-437 -330
h1201zM535 688q0 4 -1.5 11t-1.5 10t1.5 10t1.5 10l-429 324v-686z" />
    <glyph glyph-name="a11" unicode="&#x261b;" horiz-adv-x="1966" 
d="M289 956q155 4 389 116q37 17 55 26q90 41 143 55t103 14q119 0 296.5 -33.5t346.5 -91.5q134 -46 200 -86.5t66 -74.5q0 -30 -43 -46.5t-127 -19.5h-4q-69 0 -188 23.5t-168 23.5q-15 0 -24 -0.5t-17 -1.5q46 -33 68 -63t22 -60q0 -35 -28.5 -64t-82.5 -46
q22 -27 31.5 -47.5t9.5 -38.5q0 -35 -22.5 -58.5t-66.5 -33.5q2 -17 3.5 -29t1.5 -21q0 -27 -13 -49t-36 -33q-58 -27 -161 -47t-197 -20q-106 0 -214.5 57t-116.5 59q-35 11 -113 17t-119 16q-41 52 -58.5 113t-17.5 156q0 86 20 156.5t62 131.5zM301 1014q-8 4 -15.5 6
t-13.5 2q-58 0 -98.5 -100.5t-40.5 -255.5v-13q0 -169 33 -241t108 -72h9q-14 -17 -31 -26t-35 -9q-65 0 -102 92t-37 256q0 176 48.5 289t119.5 113q18 0 32 -10.5t23 -30.5z" />
    <glyph glyph-name="a12" unicode="&#x261e;" horiz-adv-x="1923" 
d="M1298 1114q275 0 412 -41.5t137 -124.5q0 -64 -97 -96.5t-292 -32.5h-18q-28 0 -53 0.5t-53 1.5q19 -20 29.5 -39.5t10.5 -38.5q0 -11 -4 -23.5t-12 -27.5q37 -20 54.5 -45t17.5 -59q0 -18 -5.5 -33.5t-15.5 -30.5q26 -24 37.5 -46.5t11.5 -47.5q0 -69 -84.5 -120.5
t-204.5 -51.5q-44 0 -74.5 14.5t-56.5 46.5q-122 0 -201 12t-131 38q-17 8 -51 27q-105 59 -170 59h-10v-95l-153 -10l-31 -59l-215 28v725l399 13v-74h19q65 0 176 72q8 5 12 8q78 50 120 66t83 16q28 0 58.5 -9t64.5 -26q26 1 72 2q108 2 145 2h73zM1458 874q162 0 243 20
t81 60q0 54 -128.5 81.5t-375.5 27.5h-29q-42 0 -82 -1.5t-77 -4.5q43 -43 82.5 -87.5t76.5 -90.5q14 -1 39 -2q39 -3 51 -3h119zM984 737q-45 -8 -72 -34.5t-27 -59.5t21.5 -52.5t58.5 -19.5q41 0 114.5 25t145.5 66q42 24 64 45t22 38t-11.5 32.5t-35.5 31.5
q-27 -51 -64.5 -73.5t-95.5 -22.5q-23 0 -54 6t-66 18zM1010 524q0 -41 19 -60.5t61 -19.5q97 0 186.5 47t89.5 97q0 22 -13 36.5t-40 22.5q-93 -39 -167 -69t-136 -54zM1360 481q-87 -46 -186 -70t-99 -49q0 -24 29 -40.5t76 -16.5q82 0 149.5 39.5t67.5 81.5q0 20 -11 36
t-26 19zM850 920q94 -91 151.5 -126.5t104.5 -35.5q37 0 65.5 17.5t28.5 37.5q0 13 -18.5 48t-46.5 69q-64 77 -129.5 117t-126.5 40q-74 0 -183 -74l-15 -10v0q-116 -81 -200 -81h-6v-407q100 -10 211 -78q26 -16 37 -21q51 -24 116 -35.5t150 -11.5h41v36q-30 5 -46.5 32
t-23.5 83q-60 4 -90.5 33.5t-38.5 91.5q-24 -5 -43 -7.5t-36 -2.5q-41 0 -81 14t-83 43l16 23q41 -13 73.5 -19t59.5 -6q45 0 89.5 21.5t88.5 64.5l-84 119zM418 436v561l-131 -4l20 -561z" />
    <glyph glyph-name="a13" unicode="&#x270c;" horiz-adv-x="1124" 
d="M903 817q90 -17 127 -76t37 -186q0 -252 -151.5 -412.5t-387.5 -160.5q-93 0 -180.5 33.5t-150.5 93.5q-72 66 -108 139.5t-36 150.5q0 86 37 133t117 64q-15 35 -22 59t-7 37q0 45 47.5 92t89.5 47q18 0 38 -6.5t46 -21.5q-77 218 -112 336.5t-35 163.5q0 62 32 98.5
t87 36.5q94 0 238 -420q25 -72 38 -111q11 31 31 88q144 416 248 416q51 0 81.5 -34.5t30.5 -92.5q0 -44 -33.5 -161t-101.5 -306zM831 834q67 182 104.5 300.5t37.5 145.5q0 29 -12.5 45t-34.5 16q-28 0 -57 -46.5t-64 -149.5l-100 -289zM585 868l-108 312
q-42 119 -65 155.5t-50 36.5q-21 0 -34 -16t-13 -43q0 -46 35 -160t105 -299q6 11 17 15.5t30 4.5q6 0 24 -1t59 -5zM698 565q-43 2 -81.5 9t-73.5 20q16 -32 28.5 -64t20.5 -63q24 30 50.5 54.5t55.5 43.5zM187 409q14 -17 39 -50q66 -91 122 -91q19 0 34 12t15 25
q0 15 -20 50t-55 79q-40 51 -66.5 74.5t-42.5 23.5q-35 0 -64.5 -37.5t-29.5 -88.5q0 -41 20.5 -91.5t59.5 -101.5q59 -79 146.5 -121.5t193.5 -42.5q195 0 326.5 145.5t131.5 364.5q0 67 -10 106.5t-33 57.5q-41 34 -159.5 61t-247.5 27q-36 0 -51 -12t-15 -41
q0 -68 76 -98.5t246 -30.5h41q14 0 22.5 -10.5t11.5 -31.5q-17 -16 -70 -36.5t-81 -40.5q-60 -44 -96.5 -104.5t-36.5 -114.5q0 -33 15.5 -79.5t15.5 -57.5v-7l-2 -9q-44 3 -69.5 51.5t-25.5 129.5v9q-8 -7 -15.5 -10t-16.5 -3t-17 1.5t-18 4.5q3 -11 4.5 -21.5t1.5 -16.5
q0 -37 -29 -63.5t-69 -26.5q-63 0 -128 61.5t-65 120.5q0 11 2.5 19.5t8.5 14.5zM487 385q17 0 31 15.5t14 33.5q0 19 -27.5 88.5t-68.5 136.5q-30 50 -59 75.5t-55 25.5q-21 0 -46.5 -26.5t-25.5 -49.5q0 -24 25 -72t67 -102q44 -59 83 -92t62 -33z" />
    <glyph glyph-name="a14" unicode="&#x270d;" horiz-adv-x="1751" 
d="M1622 840q20 -79 30.5 -149t10.5 -132q0 -77 -15.5 -169t-45.5 -200l-283 -2l-21 105q-73 -19 -117.5 -27t-70.5 -8q-33 0 -100.5 13.5t-100.5 13.5q-50 0 -139.5 -18.5t-128.5 -18.5q-47 0 -113.5 13.5t-154.5 41.5l-111 -123q-59 -21 -109 -37t-96 -28l-6 6
q25 58 46.5 104t43.5 90q3 4 17 25.5t24 36.5l-26 24q56 146 94 251t69 198q127 123 228 196.5t186 104.5l119 -78q107 125 154.5 167t74.5 42q29 0 55.5 -30.5t26.5 -63.5q0 -28 -31.5 -71.5t-140.5 -153.5q98 -66 176.5 -101t144.5 -43l27 41zM1548 248q22 71 32.5 139.5
t10.5 136.5q0 65 -10.5 131t-32.5 131l-164 2q14 -75 20.5 -131.5t6.5 -99.5q0 -59 -14 -136.5t-43 -182.5zM1339 352q15 74 21 122t6 81q0 45 -8.5 98t-26.5 115q-35 2 -69.5 6.5t-68.5 12.5q-62 29 -122.5 62.5t-120.5 72.5l-119 -129v-17q0 -72 -26 -124t-84 -95
q51 2 100 13.5t99 33.5q-10 -28 -27.5 -49.5t-43.5 -36.5h-15q-12 0 -56 1t-76 1q-139 0 -228 -37.5t-89 -89.5q0 -29 27 -45.5t100 -28.5q15 13 22 27.5t7 30.5q0 15 -5 37t-16 55q30 -13 42.5 -33t12.5 -53q0 -18 -9 -36.5t-25 -33.5q31 -10 59 -15t55 -5q49 0 134.5 25.5
t123.5 25.5q28 0 97 -15.5t110 -15.5q33 0 86 9.5t133 29.5zM786 752q-39 -47 -80.5 -94t-84.5 -95l10 -2h10q59 0 100 53t45 138zM808 1033l-15 12q-61 49 -72 49q-33 0 -145.5 -84t-221.5 -205q-23 -51 -42.5 -100.5t-34.5 -98.5q24 -9 37.5 -27t15.5 -44l-2 -11
q-7 -28 -19 -57t-30 -57h18q21 0 50 31t50 77q4 8 10 24q29 75 64 122q40 52 201 223q87 91 136 146zM217 408h2q33 0 55.5 33.5t22.5 84.5q0 21 -6.5 35t-22.5 27l-78 -178zM252 220q-3 20 -19 41.5t-47 45.5q-30 -38 -48 -67t-25 -52l18 -24q32 11 62.5 25t58.5 31z" />
    <glyph glyph-name="a15" unicode="&#x270e;" horiz-adv-x="1866" 
d="M1739 268q16 -30 23 -53.5t7 -42.5q0 -34 -33.5 -52t-97.5 -18h-448q-41 0 -70 8t-57 25l-911 547l-50 287l168 278l267 76l919 -555q25 -15 45.5 -40t38.5 -62zM1450 716l-862 521l28 -190l811 -492q10 36 15.5 75.5t7.5 85.5zM1528 152q53 0 92 35.5t39 84.5
q0 20 -9 46.5t-30 68.5l-125 252q-14 -161 -90.5 -281t-220.5 -206h344zM1413 502l-821 497l-127 -211l823 -495q43 44 74 96t51 113zM563 1053l-33 219l-223 -64l-149 -250l43 -241l205 71zM1247 254l-817 491l-180 -65l860 -514q39 17 73 39t64 49zM455 1081
q0 -62 -52 -133t-96 -71q-25 0 -39 15t-14 42q0 62 52 135.5t95 73.5q24 0 39 -17t15 -45z" />
    <glyph glyph-name="a16" unicode="&#x270f;" horiz-adv-x="1911" 
d="M1745 795q8 -6 22 -16q76 -53 76 -87q0 -21 -17 -41t-81 -65l-375 -264q-32 -23 -62.5 -32t-78.5 -9h-946l-213 243v365l213 225h929q39 0 72.5 -11.5t69.5 -37.5zM1616 563q35 25 47 48t12 83q0 44 -15 72.5t-52 54.5l-289 199q41 -89 61.5 -171t20.5 -159
q0 -60 -18 -141t-54 -187zM1311 893q-16 50 -34.5 93.5t-39.5 80.5h-862l143 -174h793zM1327 559q8 26 12 56.5t4 66.5q0 39 -4.5 77.5t-13.5 77.5l-807 1v-279h809zM1317 502h-807l-139 -172h889q17 38 31 80.5t26 91.5zM465 526v344l-162 197l-178 -195v-327l182 -211z
M365 707q0 -77 -21 -118.5t-59 -41.5q-36 0 -56 44t-20 124q0 76 19.5 115.5t56.5 39.5t58.5 -43.5t21.5 -119.5z" />
    <glyph glyph-name="a105" unicode="&#x2710;" horiz-adv-x="1866" 
d="M1638 1323q66 0 98.5 -18.5t32.5 -55.5q0 -14 -8 -38.5t-22 -53.5l-199 -397q-18 -37 -38.5 -62t-45.5 -41l-919 -555l-267 76l-168 279l50 286l911 547q28 18 57 25.5t70 7.5h448zM1620 1038q21 44 30 70.5t9 44.5q0 49 -39 85t-92 36h-344q145 -87 221 -205.5
t90 -282.5zM1247 1171q-29 26 -63 48t-74 41l-860 -515l180 -65zM1413 924q-20 59 -50.5 110.5t-74.5 98.5l-823 -496l127 -211zM1449 708q-1 48 -6.5 87t-15.5 75l-811 -491l-28 -191zM563 373l-157 264l-205 72l-43 -242l149 -250l223 -63zM455 344q0 -27 -15 -44t-39 -17
q-44 0 -95.5 73t-51.5 136q0 26 14.5 41.5t38.5 15.5q44 0 96 -71.5t52 -133.5z" />
    <glyph glyph-name="a17" unicode="&#x2711;" horiz-adv-x="1935" 
d="M1864 705q-250 -201 -447 -313.5t-293 -112.5q-54 0 -94 27.5t-92 111.5q-40 65 -71 88.5t-72 23.5q-49 0 -85.5 -36.5t-54.5 -104.5h-262q-153 0 -237 82.5t-84 233.5q0 150 84 232.5t237 82.5h262q18 -68 54.5 -104.5t85.5 -36.5q41 0 72 23.5t71 88.5q52 84 92 111.5
t94 27.5q97 0 295.5 -113.5t444.5 -311.5zM1503 528v152l-192 -6q-14 -69 -47.5 -104t-85.5 -35q-61 0 -98.5 46t-37.5 124q0 77 37.5 123t98.5 46q52 0 85.5 -35t47.5 -104l192 -6v152q-140 89 -231.5 132.5t-141.5 43.5q-37 0 -60 -14.5t-52 -59.5q-5 -7 -14 -21
q-103 -155 -209 -155q-63 0 -109.5 35.5t-77.5 107.5h-209q-132 0 -195 -60t-63 -185q0 -126 63 -186t195 -60h209q33 73 78.5 108t108.5 35q108 0 217 -167q8 -13 12 -19q23 -35 46 -49.5t54 -14.5q47 0 136.5 41.5t242.5 134.5z" />
    <glyph glyph-name="a18" unicode="&#x2712;" horiz-adv-x="1995" 
d="M1950 707q-208 -37 -424 -312l-6 -8q-93 -117 -145 -151.5t-113 -34.5q-90 0 -141 45.5t-93 171.5q0 1 -2 5q-58 173 -141 173q-56 0 -94 -60q-6 -10 -8 -13q-43 -69 -102.5 -94.5t-199.5 -25.5h-45q-217 0 -291.5 64.5t-74.5 237.5q0 172 75 236.5t291 64.5h45
q138 0 198.5 -26t103.5 -94q1 -2 5 -9q37 -64 101 -64q79 0 137 173l2 5q42 126 93 171.5t141 45.5q57 0 106.5 -31t118.5 -114q24 -29 66 -83q79 -100 114 -132q67 -61 135 -94.5t148 -46.5zM1823 702q-25 15 -140.5 26t-267.5 11h-31q-16 57 -48 87t-76 30
q-60 0 -96 -40.5t-36 -108.5q0 -69 36.5 -111.5t95.5 -42.5q43 0 74.5 29.5t49.5 87.5h31q163 0 273.5 9t134.5 23z" />
    <glyph glyph-name="a19" unicode="&#x2713;" horiz-adv-x="1546" 
d="M1470 1409q-259 -289 -485.5 -598t-416.5 -634q-14 -24 -35 -67q-65 -130 -185 -130q-51 0 -84 15t-61 52q-23 32 -43 83.5t-47 151.5q-2 6 -4 15q-31 111 -31 139q0 57 66.5 104.5t131.5 47.5q21 0 34 -12.5t30 -53.5q10 -25 25 -68q34 -96 57 -96q20 0 158 219
q132 209 227 351q133 199 202.5 287.5t125.5 134.5q49 40 126 63t195 31z" />
    <glyph glyph-name="a20" unicode="&#x2714;" horiz-adv-x="1733" 
d="M1663 1300q0 -117 -106 -228l-11 -11l-618 -651q-197 -207 -335.5 -320t-195.5 -113q-60 0 -149 56.5t-115 116.5q-22 50 -41.5 212t-19.5 351q0 103 86 190.5t190 87.5q99 0 118 -181q2 -21 3 -31q16 -139 37 -194t57 -55q15 0 56 32.5t98 88.5l635 629q80 80 143 121
t107 41q33 0 47 -25t14 -84v-33z" />
    <glyph glyph-name="a21" unicode="&#x2715;" horiz-adv-x="1561" 
d="M1493 115l-115 -115l-598 598l-598 -598l-114 115l598 598l-598 598l114 114l598 -598l598 598l115 -114l-598 -598z" />
    <glyph glyph-name="a22" unicode="&#x2716;" horiz-adv-x="1559" 
d="M1493 344l-344 -344l-371 371l-370 -371l-345 344l371 371l-371 368l347 347l368 -369l369 369l346 -347l-371 -368z" />
    <glyph glyph-name="a23" unicode="&#x2717;" horiz-adv-x="1169" 
d="M1169 1266q-104 -132 -204.5 -262t-198.5 -261q52 -106 106 -221.5t111 -245.5l-29 -24l2 -21q-9 -9 -19.5 -16.5t-23.5 -13.5l11 -33q-11 -20 -28 -32.5t-37 -16.5q-21 1 -89.5 98.5t-181.5 286.5q-107 -147 -207.5 -303t-194.5 -322q-24 -12 -50 -18t-54 -6h-12
q-29 27 -46.5 57.5t-17.5 48.5q0 10 3 24t9 35l-18 33q36 91 152.5 256.5t316.5 413.5q-40 106 -80.5 221t-89.5 262q13 28 28 45t27 17q8 0 16 -4.5t17 -14.5q6 6 14 9.5t17 3.5h8q7 10 15 17t18 13h2q29 0 110 -172q49 -104 82 -170q59 68 152 179q178 212 196 212
q11 0 28.5 -9.5t41.5 -28.5l45 43q16 -17 29.5 -37t23.5 -43z" />
    <glyph glyph-name="a24" unicode="&#x2718;" horiz-adv-x="1386" 
d="M1329 1268q-6 -14 -13.5 -26t-16.5 -23l-3 -13q-123 -122 -236 -250t-216 -262q72 -96 147 -191.5t154 -189.5q-18 -57 -38 -83t-49 -30q-11 -11 -17.5 -26t-6.5 -31v-4q-7 -6 -25 -21t-28 -24q-15 6 -31 16t-32 25q-12 -19 -29.5 -35.5t-38.5 -29.5l-27 4
q-60 70 -116.5 148.5t-110.5 164.5q-95 -119 -177 -226t-155 -208l-31 -2l-38 45l8 33l-13 10q-9 -2 -19 -6t-28 -15q-26 22 -46 48.5t-33 57.5q6 16 16 35.5t10 22.5q0 9 -12.5 36t-19.5 47q80 99 169 203.5t189 217.5q-74 132 -132.5 269t-103.5 282q15 23 32.5 42.5
t37.5 35.5q18 -13 26.5 -20t16.5 -15q9 4 16.5 9t14.5 11q0 17 3.5 29.5t12.5 22.5l39 10q38 -26 154 -206q78 -121 129 -195q117 134 238.5 256.5t248.5 234.5q26 -11 46 -29t34 -43l-12 -24q6 -11 14 -19t18 -14h39z" />
    <glyph glyph-name="a25" unicode="&#x2719;" horiz-adv-x="1563" 
d="M1493 473h-471v-473h-481v473h-471v481h471v471h481v-471h471v-481zM1432 532v363h-471v469h-361v-469h-471v-363h471v-471h361v471h471zM1352 614h-471v-471h-199v471h-473v197h473v471h199v-471h471v-197z" />
    <glyph glyph-name="a26" unicode="&#x271a;" horiz-adv-x="1556" 
d="M1491 473h-471v-473h-481v473h-473v481h471v471h481v-471h473v-481z" />
    <glyph glyph-name="a27" unicode="&#x271b;" horiz-adv-x="1554" 
d="M1491 596h-594v-596h-235v596h-596v235h593v594h236v-594h596v-235zM887 606v215h-217v-215h217z" />
    <glyph glyph-name="a28" unicode="&#x271c;" horiz-adv-x="1544" 
d="M1485 473h-471v-473h-482v473h-473v481h473v471h480v-471h473v-481zM1004 483v461h-463v-461h463z" />
    <glyph glyph-name="a6" unicode="&#x271d;" horiz-adv-x="1012" 
d="M952 858h-348v-858h-194v858h-351v191h351v364h194v-364h348v-191z" />
    <glyph glyph-name="a7" unicode="&#x271e;" horiz-adv-x="1130" 
d="M1079 713h-295v-713h-239l-187 147v566h-116l-189 161v248h305v291h260l166 -158v-133h138l157 -151v-258zM913 883v182h-305v289h-192v-289h-310v-182h310v-723h192v723h305z" />
    <glyph glyph-name="a8" unicode="&#x271f;" horiz-adv-x="1100" 
d="M1044 715h-294v-715h-400v715h-293v399h293v299h400v-299h294v-399zM987 770v287h-293v301h-291v-301h-292v-287h292v-715h291v715h293zM924 829h-291v-712h-164v712h-293v164h293v301h164v-301h291v-164z" />
    <glyph glyph-name="a9" unicode="&#x2720;" horiz-adv-x="1182" 
d="M1120 328h-45q-23 169 -130 251t-312 86q5 -206 86.5 -312.5t251.5 -129.5v-45q-145 6 -238.5 9t-140.5 3q-48 0 -143 -3t-238 -9v45q169 22 251.5 129t88.5 313q-205 -4 -312.5 -85.5t-132.5 -251.5h-45q7 140 10 235.5t3 143.5q0 47 -3 142.5t-10 237.5h45
q22 -169 129.5 -251t315.5 -88q-5 206 -85.5 312t-252.5 132v45q141 -6 236 -9t143 -3q47 0 140.5 3t238.5 9v-45q-170 -23 -251.5 -130t-86.5 -314q204 4 311 85.5t131 251.5h45q-6 -127 -9 -222t-3 -156q0 -62 3 -157t9 -222z" />
    <glyph glyph-name="a10" unicode="&#x2721;" horiz-adv-x="1417" 
d="M1346 340h-424l-213 -371l-213 371h-424l211 367l-211 368h424l213 369l213 -369h424l-209 -368zM1219 1001h-254l129 -219zM838 1075l-129 225l-129 -225h258zM1219 412l-125 223l-127 -223h252zM1055 707l-174 292h-342l-174 -292l174 -293h342zM453 1001h-254
l127 -219zM840 340h-256l125 -223zM453 412l-129 221l-127 -221h256z" />
    <glyph glyph-name="a29" unicode="&#x2722;" horiz-adv-x="1610" 
d="M842 743q114 13 287 70t241 57q75 0 122.5 -45t47.5 -116q0 -75 -48 -118.5t-130 -43.5q-51 0 -222 55.5t-298 71.5q11 -116 69 -289t58 -240q0 -75 -45 -122.5t-117 -47.5t-117 47.5t-45 122.5q0 68 57 241t70 288q-128 -16 -298.5 -71.5t-221.5 -55.5q-82 0 -130 43.5
t-48 118.5q0 72 47 116.5t123 44.5q67 0 240.5 -57t287.5 -70q-13 115 -70 288.5t-57 240.5q0 75 45 122.5t117 47.5t117 -47.5t45 -122.5q0 -67 -58 -240t-69 -289z" />
    <glyph glyph-name="a30" unicode="&#x2723;" 
d="M991 725q50 0 88 17.5t88 72.5q57 61 93 77.5t86 16.5q83 0 138.5 -57t55.5 -143q0 -87 -55.5 -144t-138.5 -57q-50 0 -86 16.5t-93 77.5q-50 55 -88 72.5t-88 17.5h-51q-11 -49 -39.5 -77.5t-77.5 -39.5v-51q0 -87 85 -168q2 -3 3 -4q61 -56 79 -94t18 -88
q0 -84 -57 -139.5t-144 -55.5t-144 55.5t-57 139.5q0 51 17.5 88t76.5 92q56 52 73.5 88.5t17.5 85.5v51q-50 11 -78 39.5t-39 77.5h-51q-52 0 -89.5 -18.5t-87.5 -73.5q-45 -53 -84.5 -72.5t-93.5 -19.5q-83 0 -138.5 57t-55.5 144q0 86 55.5 143t138.5 57q53 0 91 -18.5
t87 -73.5q50 -55 87.5 -73.5t89.5 -18.5h51q11 49 39 77.5t78 39.5v51q0 51 -18 88.5t-75 87.5q-55 52 -73.5 89.5t-18.5 88.5q0 84 57 139.5t144 55.5t144 -55.5t57 -139.5q0 -51 -17.5 -88t-75.5 -90q-59 -55 -75.5 -91t-16.5 -85v-51q49 -11 77.5 -39.5t39.5 -77.5h51z
" />
    <glyph glyph-name="a31" unicode="&#x2724;" 
d="M838 739q104 6 207 113l4 4q70 71 117 94t104 23q113 0 190.5 -76.5t77.5 -187.5q0 -112 -77.5 -188.5t-190.5 -76.5q-57 0 -104.5 24t-116.5 93q-1 0 -1 1q-106 110 -212 114q7 -103 110 -205l6 -6q69 -69 93 -117t24 -104q0 -113 -76.5 -191t-187.5 -78
q-112 0 -188 77.5t-76 191.5q0 56 23 103t93 118l9 9q102 101 106 204q-102 -8 -205 -111l-6 -6q-70 -70 -117 -93.5t-104 -23.5q-115 0 -191.5 76t-76.5 189q0 111 77.5 187.5t190.5 76.5q57 0 104 -23t117 -94l9 -9q101 -102 204 -106q-6 101 -107 202q-6 6 -10 9
q-70 71 -93 118t-23 104q0 113 76 190.5t188 77.5q111 0 187.5 -77.5t76.5 -190.5q0 -57 -24 -105t-93 -117l-6 -6q-104 -104 -108 -207z" />
    <glyph glyph-name="a32" unicode="&#x2725;" horiz-adv-x="1618" 
d="M1352 829q14 7 28 10t29 3q55 0 94 -39t39 -94q0 -57 -38.5 -95.5t-94.5 -38.5q-15 0 -29 3.5t-28 9.5v-4q0 -55 -38.5 -93t-94.5 -38t-95 38.5t-39 94.5q0 24 9 46t28 46h-282v-283q24 19 46 28t46 9q55 0 94 -39t39 -94q0 -56 -38 -94.5t-93 -38.5h-4q6 -16 9 -30
t3 -27q0 -56 -38.5 -95t-94.5 -39t-94.5 39t-38.5 95q0 15 3 29t9 28h-4q-55 0 -93 38.5t-38 94.5q0 55 39 94t94 39q23 0 46 -9t46 -28v283h-282q19 -24 27.5 -46t8.5 -46q0 -56 -38 -94.5t-95 -38.5q-56 0 -94.5 38t-38.5 93v4q-14 -6 -28 -9.5t-29 -3.5q-56 0 -94.5 38.5
t-38.5 95.5q0 55 39 94t94 39q13 0 27.5 -3t29.5 -10v5q0 54 38.5 92.5t94.5 38.5t94.5 -39t38.5 -95q0 -24 -9 -47t-27 -45h282v283q-24 -19 -46 -28t-46 -9q-56 0 -94.5 38.5t-38.5 94.5t38 94.5t93 38.5h4q-6 14 -9 28.5t-3 29.5q0 56 38.5 94.5t94.5 38.5t94.5 -38.5
t38.5 -94.5q0 -15 -3 -29.5t-9 -28.5h4q54 0 92.5 -38.5t38.5 -94.5t-38.5 -94.5t-94.5 -38.5q-24 0 -46 9t-46 28v-283h282q-18 22 -27.5 45t-9.5 47q0 56 39 95t95 39t94.5 -38.5t38.5 -92.5v-5z" />
    <glyph glyph-name="a33" unicode="&#x2726;" horiz-adv-x="1624" 
d="M1546 688q-181 -75 -288.5 -135t-167.5 -119q-59 -59 -119 -166t-137 -293h-41q-78 186 -138 293t-118 166q-60 59 -167.5 119t-289.5 135v41q183 75 290.5 135t166.5 119q58 59 118 166t138 293h41q77 -186 137 -293t119 -166q58 -59 165.5 -119t290.5 -135v-41z" />
    <glyph glyph-name="a34" unicode="&#x2727;" horiz-adv-x="1626" 
d="M1546 688q-181 -75 -288.5 -135t-167.5 -119q-59 -59 -119 -166t-137 -293h-41q-78 186 -138 293t-118 166q-60 59 -167.5 119t-289.5 135v41q183 75 290.5 135t166.5 119q58 59 118 166t138 293h41q77 -186 137 -293t119 -166q58 -59 165.5 -119t290.5 -135v-41z
M1483 705v8q-140 14 -267.5 50t-250.5 97q-61 123 -97.5 251t-50.5 267h-8q-14 -139 -50.5 -267t-96.5 -251q-128 -61 -255.5 -97.5t-263.5 -49.5v-8q136 -14 263.5 -50.5t255.5 -97.5q61 -127 97 -255t50 -263h8q14 135 50 263t98 255q123 61 250.5 97.5t267.5 50.5z" />
    <glyph glyph-name="a35" unicode="&#x2605;" horiz-adv-x="1671" 
d="M1606 883l-476 -346l183 -562l-477 347l-478 -347l183 562l-475 346h587l183 559l182 -559h588z" />
    <glyph glyph-name="a36" unicode="&#x2729;" horiz-adv-x="1686" 
d="M1608 903l-439 -379l144 -549l-477 306l-478 -306l144 549l-439 379l566 33l207 506l206 -506zM1532 877l-563 -43l-133 528l-131 -528l-566 43l482 -316l-215 -522l430 367l430 -367l-215 522z" />
    <glyph glyph-name="a37" unicode="&#x272a;" horiz-adv-x="1616" 
d="M1540 707q0 -147 -55 -279.5t-160 -237.5q-105 -104 -237 -159.5t-279 -55.5t-280.5 55.5t-237.5 159.5q-105 105 -160 237.5t-55 279.5q0 146 55 278.5t160 237.5q104 104 237 159.5t279 55.5q147 0 279 -55t239 -160q105 -105 160 -237.5t55 -278.5zM1452 918h-491
l-154 468l-152 -468h-491l397 -289l-153 -471l399 291l401 -291l-153 471z" />
    <glyph glyph-name="a38" unicode="&#x272b;" horiz-adv-x="1722" 
d="M1636 881l-510 -336l213 -570l-477 381l-481 -383l215 572l-510 336l610 -29l164 590l166 -590zM1081 631q0 90 -64 154.5t-155 64.5q-92 0 -155.5 -63.5t-63.5 -155.5t63 -155.5t154 -63.5q94 0 157.5 63t63.5 156z" />
    <glyph glyph-name="a39" unicode="&#x272c;" horiz-adv-x="1686" 
d="M1616 903l-434 -379l139 -549l-477 306l-479 -306l139 549l-434 379l565 33l207 506l207 -506zM1540 877l-563 -43l-133 528l-131 -528l-568 43l478 -316l-211 -522l430 367l432 -367l-211 522zM1069 639q0 -94 -66 -159.5t-159 -65.5q-96 0 -162 65t-66 160
q0 94 66 159.5t160 65.5q95 0 161 -65.5t66 -159.5z" />
    <glyph glyph-name="a40" unicode="&#x272d;" horiz-adv-x="1706" 
d="M1622 883l-475 -346l184 -562l-477 347l-479 -347l184 562l-475 346h588l180 559l182 -559h588zM1458 829h-461l-143 441l-145 -441h-461l373 -272l-144 -442l375 274l377 -274l-144 442zM1296 776l-274 -198l104 -324l-272 201l-274 -201l104 324l-274 198h338l104 322
l106 -322h338z" />
    <glyph glyph-name="a41" unicode="&#x272e;" horiz-adv-x="1671" 
d="M1608 903l-432 -379l137 -549l-477 306l-478 -306l138 549l-433 379l566 33l207 506l206 -506zM1413 836l-424 24l-153 377l-154 -377l-424 -24l324 -285l-101 -404l355 226l354 -226l-100 404zM1219 770l-218 -190l66 -263l-231 148l-232 -148l66 263l-217 190l282 16
l101 244l100 -244z" />
    <glyph glyph-name="a42" unicode="&#x272f;" horiz-adv-x="1702" 
d="M1622 883l-477 -346l182 -562l-477 347l-477 -347l182 562l-475 346h588l182 559l182 -559h590zM1520 850h-512l-152 -215zM850 639v696l-158 -485zM1266 61l-160 488l-252 80zM846 633l-666 217l414 -301zM850 362v259l-416 -560z" />
    <glyph glyph-name="a43" unicode="&#x2730;" horiz-adv-x="1890" 
d="M1825 846l-449 -309l174 -537l-290 14l-289 211l-340 -250l-258 45l168 517l-475 346h587l183 559l256 -35l172 -524h372zM1466 838h-481l-129 518l-170 -518h-481l389 -285l-150 -459l392 285l391 -285l-150 459z" />
    <glyph glyph-name="a44" unicode="&#x2731;" horiz-adv-x="1524" 
d="M1456 494l-160 -279l-387 240l13 -455h-320l12 455l-387 -240l-159 279l401 217l-401 217l159 278l387 -239l-12 454h320l-13 -454l387 239l160 -278l-401 -217z" />
    <glyph glyph-name="a45" unicode="&#x2732;" horiz-adv-x="1481" 
d="M1411 969l-434 -252l-115 198l434 250zM854 920h-227v501h227v-501zM1411 455l-115 -197l-434 250l115 199zM618 915l-114 -198l-434 252l114 196zM854 0h-227v502h227v-502zM618 508l-434 -250l-114 197l434 252z" />
    <glyph glyph-name="a46" unicode="&#x2733;" horiz-adv-x="1534" 
d="M1479 666l-645 18l469 -442l-66 -66l-442 469l18 -645h-92l18 645l-442 -469l-66 66l469 442l-645 -18v92l645 -21l-469 443l66 65l442 -469l-18 645h92l-18 -645l442 469l66 -65l-469 -443l645 18v-89z" />
    <glyph glyph-name="a47" unicode="&#x2734;" horiz-adv-x="1618" 
d="M1542 705q0 -4 -4 -8.5t-8 -4.5l-572 -45l373 -436q1 -1 1.5 -3t0.5 -7q0 -4 -0.5 -5.5t-1.5 -2.5l-6 -7q-1 -1 -2.5 -1.5t-5.5 -0.5q-5 0 -7 0.5t-3 1.5l-437 373l-45 -571q0 -5 -3.5 -9t-8.5 -4h-8q-5 0 -8.5 3.5t-3.5 9.5l-45 571l-437 -373q-1 -1 -4.5 -2.5
t-5.5 -1.5q-1 0 -4 1.5t-4 2.5l-6 7q-2 1 -3 3.5t-1 4.5q0 3 1 5.5t3 4.5l372 436l-571 45q-5 0 -8.5 3.5t-3.5 9.5v8q0 4 3.5 8t8.5 4l571 45l-372 436q-1 1 -1.5 3t-0.5 8q0 4 0.5 5.5t1.5 2.5l6 6q1 1 2.5 1.5t5.5 0.5q5 0 7 -0.5t3 -1.5l437 -373l45 572q0 4 4 8t8 4h8
q4 0 8 -4t4 -8l45 -572l437 373q1 1 3 1.5t7 0.5q4 0 5.5 -0.5t2.5 -1.5l6 -6q1 -1 1.5 -2.5t0.5 -5.5q0 -6 -0.5 -8t-1.5 -3l-373 -436l572 -45q4 0 8 -4.5t4 -7.5v-8z" />
    <glyph glyph-name="a48" unicode="&#x2735;" horiz-adv-x="1622" 
d="M1548 690l-452 -98l252 -389l-27 -27l-389 252l-98 -453h-37l-99 453l-389 -252l-26 27l252 389l-453 98v37l453 98l-252 389l26 27l389 -252l99 453h37l98 -453l389 252l27 -27l-252 -389l452 -98v-37zM1282 1176l-362 -234l-82 -211zM1475 709l-422 90l-205 -90h627z
M815 741v627l-90 -422zM1282 242l-233 362l-211 82zM793 731l-445 445l234 -363zM905 471l-90 205v-627zM782 709h-626l422 -91zM793 686l-445 -444l363 233z" />
    <glyph glyph-name="a49" unicode="&#x2736;" horiz-adv-x="1423" 
d="M1348 348v-6l-11 -6l-8 2l-495 158l-109 -508q-4 -8 -6 -10t-7 -2q-4 1 -7 4t-4 7l-111 509l-496 -158l-8 -2l-10 6v6l6 10l385 351l-385 350l-6 10v6l10 6l8 -2l496 -157l108 507q3 6 6.5 9.5t5.5 3.5q5 -2 8 -5t5 -7l111 -508l495 157l8 2l11 -6v-6l-7 -10l-385 -350
l385 -351z" />
    <glyph glyph-name="a50" unicode="&#x2737;" horiz-adv-x="1589" 
d="M1505 420l-2 -8l-10 -2l-10 2l-475 86l88 -486l-6 -12h-4q-6 2 -10 5t-7 7l-274 398l-275 -398q-2 -3 -6.5 -6.5t-9.5 -5.5l-8 2l-2 10l88 486l-486 -88l-12 6v3q2 6 5.5 10.5t6.5 6.5l398 275l-398 274q-4 3 -7 7t-5 9l2 7l10 4l486 -88l-86 475l-2 10l6 12h4
q4 -2 7.5 -4.5t8.5 -7.5l275 -397l274 397q4 6 7.5 8.5t9.5 3.5l6 -2l4 -10l-2 -10l-86 -475l475 86l10 2l12 -6v-5q-1 -4 -4.5 -8.5t-7.5 -7.5l-397 -274l397 -275q5 -5 7.5 -8.5t4.5 -7.5z" />
    <glyph glyph-name="a51" unicode="&#x2738;" horiz-adv-x="1573" 
d="M1513 408l-460 34l34 -460l-301 350l-301 -350l35 460l-461 -34l351 301l-351 301l461 -35l-35 461l301 -351l301 351l-34 -461l460 35l-350 -301z" />
    <glyph glyph-name="a52" unicode="&#x2739;" horiz-adv-x="1622" 
d="M1544 709l-370 -97l272 -270l-369 100l101 -368l-271 272l-96 -371l-96 371l-271 -272l101 368l-369 -100l273 270l-371 97l371 96l-273 270l369 -100l-101 368l271 -272l96 371l96 -371l271 272l-101 -368l369 100l-272 -270z" />
    <glyph glyph-name="a53" unicode="&#x273a;" horiz-adv-x="1554" 
d="M1491 674l-580 10l539 -211l-29 -70l-530 234l418 -401l-54 -54l-401 416l231 -528l-69 -31l-211 541l12 -580h-76l13 580l-211 -541l-70 31l232 528l-402 -416l-53 54l418 401l-531 -234l-28 70l538 211l-579 -12v78l579 -13l-538 211l28 70l531 -234l-418 402l53 53
l402 -416l-232 529l70 30l211 -540l-13 579h76l-12 -579l211 540l69 -30l-231 -529l401 416l54 -53l-418 -402l530 234l29 -70l-539 -211l580 13v-76z" />
    <glyph glyph-name="a54" unicode="&#x273b;" horiz-adv-x="1448" 
d="M905 813q144 183 222.5 253.5t134.5 70.5q46 0 80 -37t34 -88q0 -74 -98 -117t-373 -82zM725 918q-57 139 -88 241t-31 154q0 61 31 95t86 34q57 0 88 -34t31 -95q0 -50 -30.5 -153.5t-86.5 -241.5zM905 604q275 -39 373 -82t98 -116q0 -52 -34 -88.5t-80 -36.5
q-56 0 -134.5 70t-222.5 253zM901 709q0 -73 -51.5 -125t-124.5 -52q-74 0 -126 51.5t-52 125.5q0 72 52 124t124 52q73 0 125.5 -52t52.5 -124zM543 813q-275 39 -373 82t-98 117q0 51 34 88t80 37q56 0 134 -70.5t223 -253.5zM723 500q57 -140 88 -242t31 -154
q0 -61 -31 -95t-86 -34q-57 0 -88 34t-31 95q0 51 30 153t87 243zM543 604q-147 -187 -224 -255t-133 -68q-28 0 -52 14.5t-46 46.5q-8 19 -12 34t-4 30q0 73 98 116t373 82z" />
    <glyph glyph-name="a55" unicode="&#x273c;" horiz-adv-x="1450" 
d="M1378 406q0 -50 -35.5 -87.5t-82.5 -37.5q-74 0 -245 189q-11 12 -18 20q-30 33 -48.5 46t-35.5 13q-20 0 -53 -22q-14 -10 -22 -15q-9 -5 -25 -13q-51 -24 -51 -67q0 -37 40 -148t40 -178q0 -62 -31 -96.5t-88 -34.5q-56 0 -86.5 34t-30.5 97q0 65 40 176t40 150
q0 43 -64 74l-12 6q-9 5 -26 16q-31 21 -49 21q-30 0 -92 -69q-15 -17 -23 -25q-101 -110 -147.5 -142t-86.5 -32q-47 0 -81.5 37.5t-34.5 87.5q0 63 70 102t257 74q59 10 81 28t22 52q0 2 -2 18t-2 29t2 28.5t2 18.5q0 32 -20.5 49t-82.5 31q-194 38 -260.5 76t-66.5 100
q0 49 35.5 87t82.5 38q37 0 81 -31.5t120 -112.5q9 -9 26 -29q88 -96 120 -96q19 0 53 23q15 10 22 14q8 5 23 12q53 26 53 68q0 39 -40 150.5t-40 175.5t30.5 97.5t88.5 33.5q56 0 86.5 -34.5t30.5 -96.5q0 -66 -40 -177t-40 -149q0 -40 53 -68q14 -7 23 -12q10 -5 26 -16
q31 -21 49 -21q17 0 35.5 13t48.5 47q122 137 171.5 173t93.5 36q46 0 81 -38t35 -87q0 -62 -66.5 -100t-260.5 -76q-62 -14 -82.5 -31t-20.5 -49q0 -3 2 -18.5t2 -28.5t-2 -29t-2 -18q0 -34 22 -52t81 -28q184 -34 255.5 -74t71.5 -102zM874 709q0 63 -44 107t-107 44
t-106.5 -43.5t-43.5 -107.5q0 -65 43.5 -108.5t106.5 -43.5q64 0 107.5 43.5t43.5 108.5z" />
    <glyph glyph-name="a56" unicode="&#x273d;" horiz-adv-x="1397" 
d="M768 694q74 -45 206 -61.5t161 -24.5q104 -26 155 -77t51 -130q0 -12 -2 -27.5t-6 -31.5q-36 -31 -70.5 -46t-70.5 -15q-46 0 -89.5 23t-98.5 78q-16 17 -97 121t-162 152l-24 15v-29q0 -84 56 -224q5 -13 7 -19q40 -99 52 -144t12 -82q0 -73 -36.5 -121t-113.5 -76
q-77 28 -113 76t-36 121q0 64 55 204q6 15 8 21q40 96 52 146.5t12 97.5v29l-25 -15q-76 -46 -157.5 -150.5t-100.5 -123.5q-53 -53 -97.5 -76.5t-90.5 -23.5q-38 0 -72.5 15t-69.5 47q-4 15 -6 29t-2 29q0 78 51 128.5t156 78.5q28 8 160 24.5t207 61.5l24 15l-24 14
q-76 43 -207 60.5t-160 25.5q-105 28 -156 78.5t-51 128.5q0 15 2 29t7 31q36 31 70.5 46t70.5 15q45 0 89.5 -24t98.5 -79q20 -20 101.5 -124.5t156.5 -147.5l25 -14v28q0 47 -12 97.5t-51 145.5q-4 9 -9 22q-55 140 -55 204q0 74 36 121.5t113 75.5q77 -28 113.5 -75.5
t36.5 -121.5q0 -64 -55 -203q-6 -15 -9 -23l-6 -15q-57 -144 -57 -228v-28l24 14q77 45 157.5 149.5t101.5 124.5q52 53 97 77t91 24q36 0 70.5 -15t70.5 -47q4 -16 6 -31t2 -28q0 -77 -51 -128t-157 -79q-29 -8 -160 -25.5t-205 -60.5l-25 -14z" />
    <glyph glyph-name="a57" unicode="&#x273e;" horiz-adv-x="1436" 
d="M793 698q344 -8 455.5 -66.5t111.5 -207.5q0 -18 -1.5 -39.5t-4.5 -41.5q-61 -47 -109 -68t-92 -21q-79 0 -162.5 83t-226.5 312l-19 -10q87 -160 131 -271.5t44 -168.5q0 -73 -51 -129t-150 -95q-100 37 -151.5 93.5t-51.5 130.5q0 58 44.5 170.5t129.5 271.5l-18 8
q-143 -229 -227 -312t-162 -83q-45 0 -94.5 21.5t-106.5 66.5q-3 21 -4.5 41.5t-1.5 40.5q0 149 112.5 207.5t454.5 66.5v21q-342 8 -454.5 67t-112.5 207q0 20 1.5 40.5t4.5 41.5q59 45 108.5 66.5t92.5 21.5q78 0 162 -83t227 -312l16 10q-86 162 -129 272.5t-43 168.5
q0 72 50.5 128.5t150.5 94.5q100 -38 151.5 -94.5t51.5 -128.5q0 -59 -44 -171.5t-128 -269.5l16 -10q149 237 230 316t159 79q43 0 92.5 -21.5t108.5 -66.5q3 -24 4.5 -44t1.5 -38q0 -147 -111 -205.5t-456 -68.5v-21zM852 1200q0 73 -32.5 120.5t-100.5 74.5
q-72 -29 -104.5 -75.5t-32.5 -119.5q0 -58 30.5 -159.5t94.5 -256.5h20q62 157 91.5 255.5t33.5 160.5zM1313 365q3 12 4.5 24.5t1.5 24.5q0 109 -119 170t-412 96l-10 -18q162 -210 247 -279.5t163 -69.5q35 0 65 12.5t60 39.5zM766 709q0 19 -14 33t-33 14
q-21 0 -35 -13.5t-14 -33.5t14 -33.5t33 -13.5q21 0 35 13t14 34zM657 662l-10 18q-293 -35 -411.5 -96t-118.5 -170q0 -13 1.5 -25.5t4.5 -23.5q29 -27 59.5 -39.5t65.5 -12.5q76 0 160 68.5t249 280.5z" />
    <glyph glyph-name="a58" unicode="&#x273f;" horiz-adv-x="1692" 
d="M1092 983q40 54 105 87.5t132 33.5q112 0 190 -86t78 -209q0 -116 -78.5 -190t-203.5 -74q-24 0 -44 3t-40 9l-82 25q-4 -7 -6 -13t-2 -10l80 -29q90 -32 146 -105.5t56 -160.5q0 -111 -89.5 -196.5t-205.5 -85.5q-108 0 -189 86t-81 198v88h-24l-3 -86
q-3 -121 -80.5 -203.5t-187.5 -82.5q-116 0 -205.5 85.5t-89.5 196.5q0 87 58.5 164.5t142.5 103.5l82 28q-1 5 -4.5 14t-3.5 10l-82 -27q-18 -6 -40.5 -9t-47.5 -3q-122 0 -200.5 74.5t-78.5 189.5q0 124 78 209.5t190 85.5q67 0 133 -33t105 -86l52 -69q2 1 5.5 3.5
t14.5 10.5l-49 69q-27 38 -41.5 84t-14.5 93q0 116 78.5 191t200.5 75t200 -75t78 -191q0 -49 -14 -95.5t-39 -81.5l-51 -71q7 -4 12 -7.5t8 -7.5zM1098 668q0 106 -73 179t-179 73t-179 -73t-73 -179t73 -179t179 -73t179 73t73 179z" />
    <glyph glyph-name="a59" unicode="&#x2740;" horiz-adv-x="1669" 
d="M1079 983q48 48 117.5 77.5t134.5 29.5q108 0 181 -80t73 -197q0 -116 -91.5 -187t-244.5 -71q-8 0 -18 1t-12 1l-82 12l71 -39q88 -48 140.5 -125.5t52.5 -158.5q0 -102 -82.5 -181t-188.5 -79q-100 0 -180.5 80t-101.5 202l-14 80l-15 -80q-21 -123 -101 -202.5
t-181 -79.5q-106 0 -188.5 78.5t-82.5 181.5q0 82 52 159t141 125l71 39l-81 -12q-7 -1 -16.5 -1.5t-33.5 -0.5q-140 0 -228.5 72.5t-88.5 185.5q0 118 72.5 197.5t181.5 79.5q65 0 135 -30t117 -77l57 -57l-35 73q-19 42 -29 86.5t-10 90.5q0 119 72.5 192.5t190.5 73.5
q117 0 189.5 -73.5t72.5 -192.5q0 -45 -10 -90t-29 -87l-35 -73zM1065 621q33 -10 64.5 -14.5t62.5 -4.5q121 0 196.5 57t75.5 146q0 84 -54 140t-136 56q-72 0 -145.5 -41.5t-135.5 -117.5q16 -15 28.5 -31t20.5 -32l33 7q134 33 156 33q15 0 22 -3t11 -10l2 -3
q0 -14 -43.5 -37t-153.5 -66q1 -9 1.5 -17t0.5 -15q0 -12 -1.5 -23.5t-4.5 -23.5zM950 874q39 59 57.5 116t18.5 116q0 96 -53 154.5t-139 58.5q-87 0 -140 -58.5t-53 -154.5q0 -60 19 -117.5t57 -114.5q26 13 43.5 19t31.5 8q8 139 16.5 179t25.5 40q25 0 40 -205
q0 -9 1 -14q14 -2 31.5 -8t43.5 -19zM860 432q10 -148 78.5 -239t165.5 -91q78 0 135 55.5t57 131.5q0 84 -66.5 160t-180.5 120q-8 -18 -19 -33.5t-26 -31.5q57 -90 79 -130.5t23 -57.5l-6 -15l-8 -4q-16 0 -46.5 31t-107.5 127q-17 -9 -35 -14t-43 -9zM674 842
q-62 76 -135.5 117.5t-145.5 41.5q-82 0 -136 -55.5t-54 -140.5q0 -89 76 -146t196 -57q31 0 62.5 4.5t64.5 14.5q-3 12 -4.5 23.5t-1.5 23.5q0 6 0.5 15t1.5 17q-119 47 -158 67.5t-39 35.5l2 3q4 7 11.5 10t21.5 3q20 0 134 -27q35 -9 55 -13q9 16 21 31t28 32zM807 432
q-20 2 -38.5 7t-39.5 16q-79 -97 -108.5 -126.5t-44.5 -31.5l-9 4l-6 14q0 15 18 48.5t85 140.5q-15 13 -26 29t-20 36q-114 -44 -180.5 -119.5t-66.5 -160.5q0 -77 56.5 -132t135.5 -55q97 0 165.5 91t78.5 239z" />
    <glyph glyph-name="a60" unicode="&#x2741;" horiz-adv-x="1616" 
d="M1335 922q87 0 147 -61.5t60 -151.5q0 -91 -60 -152t-147 -61h-14l6 -7q32 -32 48 -67.5t16 -77.5q0 -91 -63.5 -154t-153.5 -63q-42 0 -80.5 16t-67.5 45l-6 7l2 -9v-6q0 -84 -62 -144.5t-151 -60.5t-142 51t-73 154l2 6v9l-6 -7q-30 -29 -68 -45t-80 -16
q-90 0 -153.5 63t-63.5 154q0 42 16 77.5t48 67.5l6 7h-14q-87 0 -147 61t-60 152q0 90 60 151.5t147 61.5h14l-6 6q-32 32 -48 68t-16 77q0 91 63.5 154t153.5 63q42 0 80 -16t68 -45l6 -6l-2 8v6q0 86 61 145.5t152 59.5q88 0 141.5 -50.5t73.5 -154.5l-2 -6v-8l6 6
q29 29 67.5 45t80.5 16q90 0 153.5 -63.5t63.5 -153.5q0 -41 -16 -77t-48 -68l-6 -6h14zM1026 809q172 67 243.5 128t71.5 138q0 70 -48.5 119t-116.5 49q-78 0 -140.5 -73.5t-125.5 -244.5q4 -2 9.5 -5t11.5 -6q88 154 138 205.5t100 51.5q40 0 70.5 -30.5t30.5 -71.5
q0 -51 -52 -100.5t-204 -135.5q5 -8 7.5 -13.5t4.5 -10.5zM973 1231q-14 82 -55 123t-109 41q-75 0 -121.5 -50t-46.5 -131q0 -44 20.5 -113t63.5 -167q6 2 11.5 4t14.5 4q-32 129 -41.5 176.5t-9.5 75.5q0 56 30 90.5t77 34.5q48 0 78 -34.5t30 -90.5q0 -31 -10 -82
t-41 -170q3 -1 11.5 -3.5t15.5 -4.5q43 99 62.5 167.5t19.5 117.5v12zM1034 627q98 -44 165.5 -64t113.5 -20q81 0 131.5 46t50.5 120q0 73 -51 119t-131 46q-44 0 -111 -20t-167 -63q1 -9 2.5 -15l2.5 -10q101 26 159.5 37.5t92.5 11.5q57 0 92 -29.5t35 -76.5t-34.5 -77
t-90.5 -30q-35 0 -94 11.5t-159 37.5q-4 -9 -5.5 -15.5t-1.5 -8.5zM997 709q0 78 -55 133t-133 55q-80 0 -135.5 -55t-55.5 -133q0 -80 55 -134.5t134 -54.5t134.5 55t55.5 134zM707 926q-64 170 -126.5 243.5t-140.5 73.5q-69 0 -117.5 -48.5t-48.5 -119.5q0 -77 72 -138
t244 -128l12 25q-152 85 -204 134.5t-52 100.5q0 41 30.5 71.5t69.5 30.5q49 0 96.5 -48t141.5 -210zM910 492q63 -171 125.5 -244.5t140.5 -73.5q67 0 116 49.5t49 118.5q0 77 -71.5 138.5t-243.5 127.5l-12 -24q152 -86 204 -135.5t52 -100.5q0 -41 -30 -71.5t-71 -30.5
q-50 0 -100 52t-138 206q-4 -2 -16 -9q-3 -2 -5 -3zM582 627q-1 0 -3 9t-4 15q-100 -26 -158.5 -37.5t-92.5 -11.5q-58 0 -92.5 29t-34.5 78q0 47 34.5 76.5t90.5 29.5q33 0 91.5 -11t161.5 -38q2 2 3.5 10t2.5 15q-101 43 -167.5 63t-110.5 20q-80 0 -131 -46t-51 -119
q0 -74 50.5 -120t131.5 -46q47 0 115.5 20.5t163.5 63.5zM725 483q-43 -98 -63.5 -167t-20.5 -113q0 -81 46 -130.5t120 -49.5t121 50.5t47 131.5q0 43 -19.5 107.5t-64.5 170.5q-7 -3 -23 -7q-2 -1 -4 -1q33 -129 42 -176.5t9 -75.5q0 -55 -29.5 -90t-76.5 -35
q-48 0 -78.5 34.5t-30.5 90.5q0 33 10.5 85.5t41.5 166.5q-2 0 -5 1q-15 4 -22 7zM706 492q-5 2 -10 4.5t-11 6.5q-95 -161 -142.5 -209t-96.5 -48q-40 0 -70 30.5t-30 71.5q0 51 52 100.5t204 135.5l-12 24q-172 -66 -244 -127.5t-72 -138.5q0 -70 49 -119t117 -49
q78 0 140.5 73.5t125.5 244.5z" />
    <glyph glyph-name="a61" unicode="&#x2742;" horiz-adv-x="1616" 
d="M1542 709q0 -150 -55 -282.5t-160 -236.5q-104 -104 -237.5 -159.5t-280.5 -55.5q-148 0 -282 55.5t-238 159.5q-105 106 -160 238.5t-55 280.5q0 147 55 280t160 238q104 104 237.5 159.5t280.5 55.5q148 0 280.5 -55t239.5 -160q105 -105 160 -238t55 -280zM1313 1214
l-324 -135q66 -36 112.5 -82t76.5 -106zM942 1098l-133 325l-135 -325q36 11 69 16.5t66 5.5q31 0 64.5 -5.5t68.5 -16.5zM1524 709l-326 133q12 -38 17.5 -70.5t5.5 -62.5q0 -31 -6 -64.5t-17 -69.5zM1159 709q0 71 -26 134t-76 113q-51 51 -114.5 77t-135.5 26
q-70 0 -134 -26.5t-114 -76.5t-76 -113t-26 -134q0 -72 26 -135t76 -113t114 -76.5t134 -26.5q72 0 135.5 26t114.5 77q50 50 76 113t26 135zM627 1079l-324 135l135 -323q32 61 79 108t110 80zM1313 203l-135 323q-31 -61 -77.5 -107.5t-111.5 -80.5zM418 575
q-11 34 -17 67.5t-6 66.5q0 31 5.5 64t17.5 69l-326 -133zM942 319q-36 -11 -69.5 -16.5t-65.5 -5.5q-31 0 -64 5.5t-69 16.5l133 -325zM627 338q-65 34 -112.5 81t-76.5 107l-135 -323z" />
    <glyph glyph-name="a62" unicode="&#x2743;" horiz-adv-x="1448" 
d="M817 709q344 -50 453.5 -105t109.5 -158q0 -25 -5 -50t-15 -54q-40 -46 -82.5 -70t-83.5 -24q-68 0 -158.5 78.5t-265.5 300.5q66 -160 102.5 -283t36.5 -178q0 -78 -47 -126.5t-137 -64.5q-91 16 -138.5 64.5t-47.5 126.5q0 55 36.5 178t102.5 283
q-178 -223 -267.5 -301t-156.5 -78q-42 0 -83.5 23.5t-82.5 70.5q-10 26 -15 52.5t-5 51.5q0 103 109.5 158t453.5 105q-344 49 -453.5 104t-109.5 158q0 26 5 52t15 52q43 48 84 71t82 23q67 0 156.5 -78t267.5 -300q-65 157 -102 280.5t-37 179.5q0 78 47 127t137 64
q92 -16 139 -64t47 -127q0 -56 -37 -179.5t-102 -280.5q178 222 267.5 300t156.5 78q40 0 81.5 -23.5t84.5 -70.5q10 -28 15 -54t5 -50q0 -103 -109.5 -158t-453.5 -104zM1319 1053q-31 35 -62.5 53t-62.5 18q-59 0 -156.5 -91t-251.5 -290zM723 780v617q-69 -12 -104 -49.5
t-35 -98.5q0 -52 37.5 -179.5t101.5 -289.5zM1319 365q9 25 12.5 43t3.5 36q0 84 -104.5 131t-444.5 97zM662 743l-533 310q-8 -24 -12 -43.5t-4 -36.5q0 -82 97.5 -128t451.5 -102zM723 20q70 13 105.5 50t35.5 98q0 51 -38 179.5t-103 289.5v-617zM662 672l-533 -307
q31 -37 62 -54.5t63 -17.5q57 0 150 85.5t258 293.5z" />
    <glyph glyph-name="a63" unicode="&#x2744;" horiz-adv-x="1407" 
d="M1339 389l-41 -67l-206 122l14 -221l-68 13l-12 247l-291 172l4 -338l209 -135l-24 -63l-183 123l2 -242h-79l2 242l-183 -123l-24 63l209 135l4 338l-291 -172l-12 -247l-68 -13l14 221l-206 -122l-41 67l211 119l-199 98l43 51l223 -112l293 166l-293 166l-223 -113
l-43 51l199 98l-211 119l41 68l206 -123l-14 221l68 -12l12 -248l291 -172l-4 338l-209 135l24 64l183 -123l-2 241h79l-2 -241l183 123l24 -64l-209 -135l-4 -338l291 172l12 248l68 12l-14 -221l206 123l41 -68l-211 -119l199 -98l-43 -51l-223 113l-293 -166l293 -166
l223 112l43 -51l-199 -98z" />
    <glyph glyph-name="a64" unicode="&#x2745;" horiz-adv-x="1425" 
d="M1356 403l-56 -96l-272 168v-303l-270 156l10 -328h-111l11 328l-271 -156v303l-272 -168l-55 96l288 156l-262 152l264 151l-290 156l55 96l272 -168v301l271 -155l-11 329h111l-10 -329l270 155v-301l272 168l56 -96l-291 -156l264 -151l-262 -152zM987 922v256
l-229 -134l-8 -270zM1247 711l-223 129l-238 -129l240 -129zM676 774l-8 270l-230 134v-256zM987 242v258l-237 147l8 -272zM639 711l-238 129l-223 -129l221 -129zM676 647l-238 -147v-258l230 133z" />
    <glyph glyph-name="a65" unicode="&#x2746;" horiz-adv-x="1411" 
d="M1348 864l-45 -96l-322 68l-223 -125l223 -125l322 67l45 -96l-195 -68l186 -102l-36 -63l-183 110l39 -203l-106 -8l-101 312l-221 131l4 -256l219 -244l-61 -88l-156 135l4 -213h-71l4 213l-156 -135l-61 88l219 244l4 256l-221 -131l-101 -312l-106 8l39 203
l-182 -110l-37 63l186 102l-195 68l46 96l321 -67l223 125l-223 125l-321 -68l-46 96l195 68l-186 102l37 64l182 -111l-39 203l106 8l101 -311l221 -131l-4 256l-219 243l61 88l156 -135l-4 213h71l-4 -213l156 135l61 -88l-219 -243l-4 -256l221 131l101 311l106 -8
l-39 -203l183 111l36 -64l-186 -102z" />
    <glyph glyph-name="a66" unicode="&#x2747;" horiz-adv-x="1610" 
d="M1434 1270l-471 -451l-50 49l451 471zM907 1280q0 -163 -28 -276t-74 -144q-47 32 -75 144t-28 276v74q0 45 24.5 65.5t78.5 20.5t78 -20.5t24 -65.5v-74zM1538 709q0 -54 -21 -78.5t-67 -24.5h-74q-164 0 -276 27.5t-144 75.5q29 46 142.5 74t277.5 28h74
q14 0 26.5 -2.5t22.5 -7.5q19 -13 29 -36.5t10 -55.5zM1434 152l-70 -70l-451 471l50 49zM696 868l-49 -49l-471 451l70 69zM930 709q0 -53 -36.5 -89t-88.5 -36t-88.5 36t-36.5 89q0 52 36.5 88.5t88.5 36.5t88.5 -36.5t36.5 -88.5zM653 709q-32 -48 -143.5 -75.5
t-276.5 -27.5h-73q-46 0 -67 24.5t-21 78.5q0 53 21 77.5t67 24.5h73q165 0 278 -28t142 -74zM907 63q0 -45 -24 -65.5t-78 -20.5q-55 0 -79 20t-24 66v74q0 165 28 276.5t75 143.5q46 -31 74 -144t28 -276v-74zM696 553l-450 -471l-70 70l471 450z" />
    <glyph glyph-name="a67" unicode="&#x2748;" horiz-adv-x="1612" 
d="M1450 1307l-412 -412l-45 45l412 412zM805 1442q85 -20 130.5 -68.5t45.5 -118.5q0 -62 -45 -153.5t-129 -202.5q-86 111 -131 202.5t-45 153.5q0 70 45 118.5t129 68.5zM1538 709q-18 -84 -66.5 -130.5t-119.5 -46.5q-62 0 -154 45t-201 130q110 85 200.5 130.5
t154.5 45.5q69 0 117.5 -45.5t68.5 -128.5zM977 709q0 -72 -49.5 -122t-120.5 -50q-72 0 -122 49.5t-50 122.5q0 70 49.5 120t120.5 50q72 0 122 -49.5t50 -120.5zM1450 109l-45 -46l-412 412l45 45zM618 940l-45 -45l-411 412l45 45zM805 516q86 -112 131 -202t45 -152
q0 -70 -45 -118.5t-129 -68.5q-86 20 -131 68t-45 119q0 62 45 153.5t129 200.5zM614 709q-108 -86 -200 -131.5t-156 -45.5q-70 0 -118.5 45.5t-67.5 129.5q19 85 67.5 130.5t118.5 45.5q62 0 154 -45t202 -129zM618 475l-411 -412l-45 46l411 411z" />
    <glyph glyph-name="a68" unicode="&#x2749;" horiz-adv-x="1460" 
d="M1081 545q31 31 63.5 46t67.5 15q73 0 125 -52.5t52 -125.5t-51 -122.5t-126 -49.5q-73 0 -123.5 50t-50.5 124q0 16 2 29.5t7 25.5l-283 164v-327q72 -23 106.5 -65t34.5 -105q0 -74 -50.5 -125.5t-123.5 -51.5q-74 0 -125 51.5t-51 125.5q0 60 35 102.5t106 67.5v325
l-282 -162q4 -12 6 -25.5t2 -29.5q0 -74 -50.5 -125t-123.5 -51t-124.5 52t-51.5 124q0 73 51.5 123.5t124.5 50.5q37 0 68.5 -14.5t62.5 -44.5l283 164l-285 163q-31 -30 -62.5 -44.5t-68.5 -14.5q-74 0 -124 50t-50 124q0 72 51 124t123 52q73 0 124.5 -51t51.5 -125
q0 -16 -2 -29.5t-6 -25.5l282 -164v328q-72 26 -106.5 68t-34.5 104q0 72 51.5 123t124.5 51q72 0 123 -51t51 -123q0 -64 -35 -106.5t-106 -65.5v-328l285 164q-6 16 -8.5 29.5t-2.5 25.5q0 74 51.5 125t124.5 51t124 -51t51 -123q0 -73 -51 -124.5t-124 -51.5
q-38 0 -70 14.5t-61 44.5l-282 -163z" />
    <glyph glyph-name="a69" unicode="&#x274a;" horiz-adv-x="1620" 
d="M1106 1102q52 87 86.5 119t71.5 32q39 0 64.5 -25.5t25.5 -66.5q0 -37 -34 -73t-116 -84l-198 -117l-19 16zM901 1350v-13q0 -26 -5 -58.5t-17 -82.5l-56 -223h-24l-58 223q-13 47 -19.5 83t-6.5 56q0 47 26.5 77t67.5 30q37 0 60 -23.5t32 -68.5zM1296 778q40 11 79 17
t63 6q47 0 76.5 -26t29.5 -66q0 -41 -29.5 -67t-76.5 -26q-23 0 -61 6t-81 17l-223 57v25zM1001 709q0 -80 -55 -135.5t-135 -55.5q-82 0 -137.5 55t-55.5 136q0 79 55.5 134.5t135.5 55.5q81 0 136.5 -55t55.5 -135zM633 903l-19 -16l-198 117q-82 48 -116 84t-34 73
q0 41 25.5 66.5t64.5 25.5q37 0 71.5 -32t86.5 -119zM1204 414q82 -49 116 -85t34 -73q0 -41 -25 -66.5t-65 -25.5q-37 0 -71.5 32t-86.5 119l-119 199l19 16zM545 696l-221 -57q-42 -11 -80.5 -17t-61.5 -6q-47 0 -76.5 26t-29.5 67q0 40 29.5 66t76.5 26q24 0 63 -6
t79 -17l221 -57v-25zM879 221q11 -43 17.5 -81t6.5 -60q0 -47 -25.5 -76t-66.5 -29q-42 0 -69 30t-27 77q0 16 5.5 47t20.5 92l56 223h24zM633 514l-119 -199q-52 -87 -86.5 -119t-71.5 -32q-40 0 -65 25.5t-25 66.5q0 37 34 73t116 85l198 116z" />
    <glyph glyph-name="a70" unicode="&#x274b;" horiz-adv-x="1608" 
d="M965 748q155 38 276.5 60.5t165.5 22.5q60 0 96.5 -33t36.5 -87q0 -56 -36 -89.5t-97 -33.5q-46 0 -165.5 22t-277.5 59q-1 -3 -3 -10q-9 -24 -15 -34q26 -17 75 -48q341 -215 341 -301q0 -48 -36.5 -85t-84.5 -37q-87 0 -304 342q-30 48 -46 73q-11 -6 -22 -10.5
t-23 -7.5q38 -159 60 -280t22 -165q0 -59 -33.5 -95t-87.5 -36q-56 0 -88.5 36t-32.5 98q0 44 22 163.5t60 276.5q-9 1 -19.5 5t-23.5 11l-34 -54q-227 -361 -316 -361q-49 0 -85 36t-36 84q0 85 321 290q59 38 90 58q-5 9 -10 20t-10 25q-144 -35 -265 -55t-175 -20
q-63 0 -98 30t-35 84q0 57 36 93t95 36q35 0 148 -22.5t292 -64.5q3 12 8 24.5t11 22.5q-40 25 -112 71q-304 191 -304 277q0 46 38 84.5t85 38.5q84 0 298 -336q32 -51 50 -78q11 6 22 10.5t22 7.5q-37 158 -59 277.5t-22 165.5q0 59 33.5 96t87.5 37t87.5 -36t33.5 -95
q0 -42 -22.5 -163.5t-59.5 -278.5q15 -4 27 -9t22 -12q18 28 51 80q213 338 299 338q47 0 84 -37.5t37 -85.5q0 -87 -299 -275q-75 -47 -117 -73q10 -21 14 -30t7 -17z" />
    <glyph glyph-name="a71" unicode="&#x25cf;" horiz-adv-x="1620" 
d="M1544 709q0 -148 -55 -280.5t-160 -238.5q-104 -104 -237.5 -159.5t-280.5 -55.5q-149 0 -282.5 55.5t-237.5 159.5q-105 106 -160 238.5t-55 280.5q0 147 55 280t160 238q104 104 237.5 159.5t280.5 55.5q148 0 280.5 -55t239.5 -160q105 -105 160 -238t55 -280z" />
    <glyph glyph-name="a72" unicode="&#x274d;" horiz-adv-x="1788" 
d="M1712 709q0 -190 -92 -351t-256 -258q-105 -62 -227.5 -93.5t-257.5 -31.5q-105 0 -199.5 17.5t-159.5 48.5q-219 104 -331.5 273.5t-112.5 394.5t112.5 394t331.5 273q63 31 158 48.5t201 17.5q134 0 257 -31.5t228 -93.5q164 -97 256 -258t92 -350zM1460 709
q0 135 -48.5 255.5t-141.5 213.5q-92 92 -212.5 141t-252.5 49q-138 0 -258.5 -47.5t-212.5 -138.5q-95 -93 -144 -214t-49 -259q0 -140 48.5 -259.5t142.5 -211.5q93 -92 214.5 -140.5t258.5 -48.5q132 0 252.5 49.5t212.5 141.5q93 92 141.5 212.5t48.5 256.5z" />
    <glyph glyph-name="a73" unicode="&#x25a0;" horiz-adv-x="1559" 
d="M1489 0h-1421v1421h1421v-1421z" />
    <glyph glyph-name="a74" unicode="&#x274f;" horiz-adv-x="1561" 
d="M1491 0h-1196v225h-227v1196h1196v-225h227v-1196zM1208 283v1081h-1083v-1081h1083z" />
    <glyph glyph-name="a203" unicode="&#x2750;" horiz-adv-x="1561" 
d="M1491 225h-225v-225h-1198v1196h225v225h1198v-1196zM1208 57v1082h-1083v-1082h1083z" />
    <glyph glyph-name="a75" unicode="&#x2751;" horiz-adv-x="1554" 
d="M1489 0h-1196l-227 225v1196h1196l227 -225v-1196zM1206 283v1081h-1083v-1081h1083z" />
    <glyph glyph-name="a204" unicode="&#x2752;" horiz-adv-x="1554" 
d="M1489 225l-225 -225h-1198v1196l225 225h1198v-1196zM1206 57v1082h-1083v-1082h1083z" />
    <glyph glyph-name="a76" unicode="&#x25b2;" horiz-adv-x="1827" 
d="M1747 0h-1667l833 1442z" />
    <glyph glyph-name="a77" unicode="&#x25bc;" horiz-adv-x="1827" 
d="M1747 1421l-834 -1441l-833 1441h1667z" />
    <glyph glyph-name="a78" unicode="&#x25c6;" 
d="M1540 709l-733 -734l-733 734l733 733z" />
    <glyph glyph-name="a79" unicode="&#x2756;" horiz-adv-x="1606" 
d="M1118 1124l-315 -315l-316 315l316 318zM1536 709l-315 -316l-318 316l318 315zM702 709l-317 -316l-315 316l315 315zM1118 291l-315 -316l-316 316l316 315z" />
    <glyph glyph-name="a81" unicode="&#x25d7;" horiz-adv-x="897" 
d="M82 1442q98 -5 185.5 -27.5t166.5 -64.5q179 -97 280 -267.5t101 -373.5q0 -202 -101.5 -374t-279.5 -274q-74 -41 -162 -62.5t-190 -22.5v1466z" />
    <glyph glyph-name="a82" unicode="&#x2758;" horiz-adv-x="283" 
d="M211 0h-139v1421h139v-1421z" />
    <glyph glyph-name="a83" unicode="&#x2759;" horiz-adv-x="567" 
d="M496 0h-424v1421h424v-1421z" />
    <glyph glyph-name="a84" unicode="&#x275a;" horiz-adv-x="850" 
d="M778 0h-706v1421h706v-1421z" />
    <glyph glyph-name="a97" unicode="&#x275b;" horiz-adv-x="803" 
d="M711 1395q-207 0 -329 -62t-122 -164q0 -31 14 -46t43 -15q16 0 63.5 12.5t80.5 12.5q110 0 189 -84t79 -201q0 -137 -89 -221t-234 -84q-153 0 -242.5 99.5t-89.5 270.5q0 253 164 391t467 138h10v-47h-4z" />
    <glyph glyph-name="a98" unicode="&#x275c;" horiz-adv-x="803" 
d="M92 590q205 0 328 62.5t123 162.5q0 33 -13.5 47.5t-44.5 14.5q-15 0 -64.5 -12.5t-80.5 -12.5q-110 0 -188 83.5t-78 201.5q0 137 89 221t234 84q152 0 242 -100t90 -271q0 -252 -164.5 -390t-466.5 -138h-10v47h4z" />
    <glyph glyph-name="a99" unicode="&#x275d;" horiz-adv-x="1368" 
d="M834 1124q41 19 78.5 28t70.5 9q132 0 222.5 -91t90.5 -222q0 -63 -23.5 -120t-68.5 -101q-44 -45 -101.5 -68.5t-119.5 -23.5q-102 0 -173.5 52.5t-121.5 164.5q-53 -113 -125 -165t-174 -52q-140 0 -228.5 98t-88.5 256q0 141 60.5 261.5t170.5 199.5q63 44 143.5 68
t165.5 24h35l41 -47q-182 -16 -290.5 -81.5t-157.5 -189.5q43 19 80 28t69 9q90 0 158.5 -43.5t126.5 -136.5q61 228 195.5 344.5t336.5 116.5h35l41 -47q-182 -16 -291 -82t-157 -189z" />
    <glyph glyph-name="a100" unicode="&#x275e;" horiz-adv-x="1368" 
d="M680 1225q53 111 125.5 164t173.5 53q139 0 228 -99.5t89 -255.5q0 -142 -60 -262t-171 -198q-63 -44 -144 -68t-165 -24h-35l-41 47q182 15 292 81t156 189q-40 -18 -78 -27.5t-71 -9.5q-90 0 -158.5 43.5t-126.5 136.5q-61 -228 -195.5 -344t-336.5 -116h-35l-41 47
q183 15 292 81t157 189q-42 -19 -79 -28t-71 -9q-132 0 -222.5 90.5t-90.5 222.5q0 131 91 222.5t222 91.5q101 0 172 -52.5t123 -164.5z" />
    <glyph glyph-name="a89" unicode="(" horiz-adv-x="799" 
d="M735 -4l-14 -21q-313 64 -485.5 256.5t-172.5 477.5q0 282 172 474.5t484 258.5l16 -21q-199 -61 -316.5 -253.5t-117.5 -458.5t117.5 -458.5t316.5 -254.5z" />
    <glyph glyph-name="a89" unicode="&#x2768;" horiz-adv-x="799" 
d="M735 -4l-14 -21q-313 64 -485.5 256.5t-172.5 477.5q0 282 172 474.5t484 258.5l16 -21q-199 -61 -316.5 -253.5t-117.5 -458.5t117.5 -458.5t316.5 -254.5z" />
    <glyph glyph-name="a90" unicode=")" horiz-adv-x="799" 
d="M78 1442q311 -64 484 -256.5t173 -476.5t-172 -477t-483 -257l-17 21q203 65 319 255t116 458q0 266 -116 456t-319 256z" />
    <glyph glyph-name="a90" unicode="&#x2769;" horiz-adv-x="799" 
d="M78 1442q311 -64 484 -256.5t173 -476.5t-172 -477t-483 -257l-17 21q203 65 319 255t116 458q0 266 -116 456t-319 256z" />
    <glyph glyph-name="a93" unicode="&#x276a;" horiz-adv-x="649" 
d="M584 0h-234q-143 172 -213.5 349t-70.5 362q0 183 70 359t212 351h236q-91 -179 -134.5 -354t-43.5 -356q0 -182 43.5 -357t134.5 -354z" />
    <glyph glyph-name="a94" unicode="&#x276b;" horiz-adv-x="649" 
d="M299 1421q143 -174 214 -350.5t71 -359.5t-70.5 -360t-212.5 -351h-235q90 179 134 354t44 357q0 181 -44 356t-134 354h233z" />
    <glyph glyph-name="a91" unicode="&#x276c;" horiz-adv-x="565" 
d="M500 0h-230l-204 711l204 710h230l-205 -710z" />
    <glyph glyph-name="a91" unicode="&#x3008;" horiz-adv-x="565" 
d="M500 0h-230l-204 711l204 710h230l-205 -710z" />
    <glyph glyph-name="a92" unicode="&#x276d;" horiz-adv-x="565" 
d="M500 711l-205 -711h-229l204 711l-204 710h229z" />
    <glyph glyph-name="a92" unicode="&#x3009;" horiz-adv-x="565" 
d="M500 711l-205 -711h-229l204 711l-204 710h229z" />
    <glyph glyph-name="a205" unicode="&#x2039;" horiz-adv-x="1042" 
d="M985 0h-383l-545 711l545 710h383l-545 -710z" />
    <glyph glyph-name="a205" unicode="&#x276e;" horiz-adv-x="1042" 
d="M985 0h-383l-545 711l545 710h383l-545 -710z" />
    <glyph glyph-name="a85" unicode="&#x203a;" horiz-adv-x="1042" 
d="M985 711l-545 -711h-383l545 711l-545 710h383z" />
    <glyph glyph-name="a85" unicode="&#x276f;" horiz-adv-x="1042" 
d="M985 711l-545 -711h-383l545 711l-545 710h383z" />
    <glyph glyph-name="a206" unicode="&#x2770;" horiz-adv-x="840" 
d="M774 0h-491l-217 711l217 710h491l-217 -710z" />
    <glyph glyph-name="a86" unicode="&#x2771;" horiz-adv-x="840" 
d="M774 711l-217 -711h-491l217 711l-217 710h491z" />
    <glyph glyph-name="a87" unicode="&#x2772;" horiz-adv-x="479" 
d="M412 2l-41 -27l-303 181v1106l303 180l41 -29l-236 -172v-1065z" />
    <glyph glyph-name="a87" unicode="&#x3014;" horiz-adv-x="479" 
d="M412 2l-41 -27l-303 181v1106l303 180l41 -29l-236 -172v-1065z" />
    <glyph glyph-name="a88" unicode="&#x2773;" horiz-adv-x="479" 
d="M412 156l-303 -181l-41 27l235 174v1065l-235 172l41 29l303 -180v-1106z" />
    <glyph glyph-name="a88" unicode="&#x3015;" horiz-adv-x="479" 
d="M412 156l-303 -181l-41 27l235 174v1065l-235 172l41 29l303 -180v-1106z" />
    <glyph glyph-name="a95" unicode="{" horiz-adv-x="684" 
d="M621 0h-220q-121 0 -171 42.5t-50 145.5v29l17 299v25q0 78 -33 120t-101 50q68 7 101 49t33 121v24l-17 299v29q0 103 50 145.5t171 42.5h220v-30q-76 0 -107 -29t-31 -100v-297q0 -125 -39.5 -182.5t-134.5 -71.5q95 -15 134.5 -72.5t39.5 -181.5v-297
q0 -72 30.5 -100.5t107.5 -28.5v-31z" />
    <glyph glyph-name="a95" unicode="&#x2774;" horiz-adv-x="684" 
d="M621 0h-220q-121 0 -171 42.5t-50 145.5v29l17 299v25q0 78 -33 120t-101 50q68 7 101 49t33 121v24l-17 299v29q0 103 50 145.5t171 42.5h220v-30q-76 0 -107 -29t-31 -100v-297q0 -125 -39.5 -182.5t-134.5 -71.5q95 -15 134.5 -72.5t39.5 -181.5v-297
q0 -72 30.5 -100.5t107.5 -28.5v-31z" />
    <glyph glyph-name="a96" unicode="}" horiz-adv-x="684" 
d="M620 711q-67 -8 -100 -50t-33 -120v-25l17 -299v-29q0 -103 -50 -145.5t-171 -42.5h-220v31q77 0 107.5 28.5t30.5 100.5v297q0 124 39.5 181.5t134.5 72.5q-95 14 -134.5 71.5t-39.5 182.5v297q0 71 -31 100t-107 29v30h220q120 0 170.5 -43t50.5 -145v-29l-17 -299v-24
q0 -80 33 -121.5t100 -48.5z" />
    <glyph glyph-name="a96" unicode="&#x2775;" horiz-adv-x="684" 
d="M620 711q-67 -8 -100 -50t-33 -120v-25l17 -299v-29q0 -103 -50 -145.5t-171 -42.5h-220v31q77 0 107.5 28.5t30.5 100.5v297q0 124 39.5 181.5t134.5 72.5q-95 14 -134.5 71.5t-39.5 182.5v297q0 71 -31 100t-107 29v30h220q120 0 170.5 -43t50.5 -145v-29l-17 -299v-24
q0 -80 33 -121.5t100 -48.5z" />
    <glyph glyph-name="a101" unicode="&#x2761;" horiz-adv-x="1499" 
d="M1430 1421l-41 -57q-53 -18 -114.5 -26.5t-133.5 -8.5h-64v-846q0 -375 -119.5 -575.5t-343.5 -200.5q-156 0 -258 86.5t-102 216.5q0 105 61 172.5t154 67.5q81 0 128.5 -46.5t47.5 -123.5q0 -52 -24.5 -81t-77.5 -40q-55 -10 -68.5 -22t-13.5 -37q0 -53 48.5 -88
t121.5 -35q173 0 265.5 175t92.5 505v61q-105 -14 -186 -20t-150 -6q-254 0 -405.5 126.5t-151.5 337.5q0 225 169.5 345t486.5 120h237v207l88 25v-232h353zM989 568v761h-192q-12 -107 -17.5 -205t-5.5 -188q0 -69 4.5 -147t14.5 -167q46 -22 95 -36t101 -18z" />
    <glyph glyph-name="a102" unicode="&#x2762;" horiz-adv-x="1114" 
d="M537 563q0 84 -37.5 136.5t-171.5 121.5q-124 65 -166.5 127.5t-42.5 163.5q0 163 111 246.5t327 83.5q217 0 328.5 -84t111.5 -246q0 -104 -43 -167.5t-166 -125.5q-136 -70 -172 -121.5t-36 -134.5v-28q135 -33 203.5 -103.5t68.5 -177.5q0 -118 -85 -198.5t-210 -80.5
q-126 0 -210.5 80.5t-84.5 198.5q0 110 69.5 181t205.5 100v28z" />
    <glyph glyph-name="a103" unicode="&#x2763;" horiz-adv-x="1114" 
d="M549 598q-49 130 -245 231q-54 28 -81 43q-92 54 -134 119t-42 156q0 128 74 211.5t186 83.5q39 0 72.5 -12t71.5 -41q15 -13 40 -39q41 -41 66 -41q24 0 73 48l26 26q30 28 69 43.5t82 15.5q112 0 186 -83t74 -210q0 -91 -42 -157t-132 -120q-27 -15 -80 -42
q-200 -103 -248 -232h-16zM883 252q0 -116 -93.5 -196.5t-232.5 -80.5q-140 0 -233 79.5t-93 197.5q0 117 93.5 197.5t232.5 80.5t232.5 -80.5t93.5 -197.5z" />
    <glyph glyph-name="a104" unicode="&#x2764;" horiz-adv-x="1864" 
d="M932 973q56 176 171 267t279 91q194 0 312 -118.5t118 -313.5q0 -171 -82 -275t-315 -202l-20 -9q-382 -161 -463 -360q-83 200 -462 360q-14 6 -22 9q-234 98 -315.5 201t-81.5 276q0 195 118.5 313.5t311.5 118.5q165 0 279.5 -91t171.5 -267z" />
    <glyph glyph-name="a106" unicode="&#x2765;" horiz-adv-x="1366" 
d="M1290 649h-33q-139 0 -229 -53.5t-160 -179.5q-18 -33 -60.5 -134t-80.5 -157q-49 -75 -120.5 -112.5t-166.5 -37.5q-72 0 -139 27.5t-119 77.5q-52 51 -79 115.5t-27 138.5q0 132 78.5 222t238.5 140v25q-160 51 -238.5 140.5t-78.5 221.5q0 153 106.5 256t266.5 103
q72 0 132 -26t113 -81q54 -56 117 -211q24 -57 37 -86q64 -141 161.5 -205.5t245.5 -64.5h35v-119z" />
    <glyph glyph-name="a107" unicode="&#x2766;" horiz-adv-x="1556" 
d="M1246 1312q9 66 40 98t84 32t87 -37.5t34 -97.5q0 -58 -34 -112.5t-99 -102.5q-57 -42 -122.5 -65t-125.5 -23q-36 0 -79.5 11t-92.5 34q-34 -77 -63 -140t-56 -121l-12 48q20 58 41.5 116.5t44.5 116.5q-278 172 -375 217t-156 45q-77 0 -133.5 -52.5t-56.5 -123.5
q0 -26 13.5 -55t39.5 -60q-10 -38 -31 -57.5t-51 -19.5q-34 0 -55.5 26t-21.5 68q0 57 30 118t86 117q57 57 118 87t118 30q56 0 121 -29t143 -90l-25 70q32 42 67 62t79 20q74 0 128 -61.5t54 -149.5q0 -25 -5.5 -55.5t-16.5 -67.5q57 -27 103 -40t83 -13q72 0 120 37
t48 92q0 34 -16 63t-55 65zM817 727q48 94 112.5 141t145.5 47q108 0 178 -73.5t70 -188.5q0 -100 -59 -177t-189 -144q-21 -11 -63 -32q-183 -90 -183 -167q0 -47 35 -78.5t86 -31.5q68 0 110.5 50t51.5 140q16 12 31.5 18.5t32.5 6.5q37 0 62.5 -23.5t25.5 -56.5
q0 -75 -93.5 -130t-228.5 -55q-132 0 -247 47t-208 138q-92 89 -141 204t-49 242q0 167 78 269t205 102q93 0 145 -62t54 -174zM911 1133q5 23 8 42.5t3 32.5q0 70 -36.5 116t-90.5 46q-30 0 -49 -20t-19 -52q0 -42 45 -82.5t139 -82.5z" />
    <glyph glyph-name="a108" unicode="&#x2767;" horiz-adv-x="1556" 
d="M1415 643q14 22 30.5 31.5t39.5 9.5q26 0 44.5 -18.5t18.5 -44.5q0 -33 -24.5 -69t-71.5 -71q-172 -125 -308 -181t-261 -56q-164 0 -271.5 79t-107.5 197q0 61 35 103t106 65q-41 52 -92.5 80t-114.5 32q-4 -100 -72.5 -177.5t-205.5 -137.5q12 -43 36 -64.5t60 -21.5
q22 0 45 11.5t45 33.5q4 -16 6 -32t2 -31q0 -58 -36 -93.5t-95 -35.5q-69 0 -113.5 45t-64.5 135l-39 17q6 22 16.5 42.5t26.5 38.5q31 137 109.5 212t218.5 100q-36 55 -142 80q-21 5 -33 8q-61 16 -87.5 42.5t-26.5 69.5q0 53 44 84t120 31q-17 -16 -24 -31t-7 -32
q0 -28 17 -51.5t53 -47.5q5 -3 17 -11q102 -66 129 -136q73 -2 135 -29.5t116 -83.5q-21 43 -32 79.5t-11 66.5q0 84 57.5 135t153.5 51q116 0 190 -67.5t103 -198.5q8 -36 20 -101q46 -235 144 -235q56 0 86.5 29.5t30.5 85.5q-1 15 -4.5 30.5t-10.5 32.5zM387 798
q-106 -16 -162.5 -71.5t-74.5 -161.5q117 34 175.5 91.5t61.5 141.5z" />
    <glyph glyph-name="a112" unicode="&#x2663;" horiz-adv-x="1589" 
d="M1071 940q30 10 58 15.5t57 5.5q64 0 124.5 -25.5t106.5 -71.5q48 -47 72 -106t24 -125q0 -67 -24 -125.5t-72 -106.5q-46 -46 -106.5 -71t-124.5 -25q-121 0 -213.5 69.5t-165.5 212.5q2 -253 114.5 -384t348.5 -154l10 -49h-971l10 49q235 23 348.5 155.5t114.5 382.5
q-72 -143 -165 -212.5t-214 -69.5q-64 0 -124.5 25t-106.5 71q-47 48 -71.5 106.5t-24.5 125.5q0 66 24.5 125t71.5 106q46 46 106.5 71.5t124.5 25.5q29 0 57 -5.5t58 -15.5q-26 43 -38.5 86.5t-12.5 89.5q0 64 25 123.5t71 106.5q47 46 106.5 71t125.5 25q65 0 125 -25
t106 -71q46 -47 71 -106.5t25 -123.5q0 -46 -12.5 -89.5t-38.5 -86.5z" />
    <glyph glyph-name="a111" unicode="&#x2666;" horiz-adv-x="1219" 
d="M1151 709q-155 -174 -290 -357t-251 -377q-115 194 -251 377t-291 357q151 169 286.5 352.5t253.5 380.5q114 -192 250 -375.5t293 -357.5z" />
    <glyph glyph-name="a110" unicode="&#x2665;" horiz-adv-x="1421" 
d="M711 1139q46 151 130 227t206 76q132 0 223.5 -86.5t91.5 -210.5q0 -83 -53 -197t-154 -246l-48 -63q-342 -446 -396 -664q-59 222 -399 666q-30 39 -46 59q-101 132 -154 246t-53 199q0 124 91.5 210.5t224.5 86.5q121 0 204.5 -75.5t131.5 -227.5z" />
    <glyph glyph-name="a109" unicode="&#x2660;" horiz-adv-x="1282" 
d="M641 1442q35 -203 285 -430q14 -13 20 -19q8 -7 24 -22q255 -231 255 -377q0 -115 -77.5 -192.5t-193.5 -77.5q-99 0 -172.5 51.5t-128.5 161.5q0 -243 110.5 -363t338.5 -125l10 -49h-942l11 49q226 5 336 124.5t112 362.5q-54 -108 -128 -160t-173 -52
q-116 0 -193.5 77.5t-77.5 192.5q0 146 250 373l29 26l19 18q251 228 286 431z" />
    <glyph glyph-name="a120" unicode="&#x2460;" 
d="M1540 709q0 -148 -55 -280.5t-160 -238.5q-105 -105 -237.5 -160t-280.5 -55q-147 0 -280.5 55.5t-237.5 159.5q-105 106 -160 238.5t-55 280.5q0 147 55 280t160 238q104 104 237.5 159.5t280.5 55.5q148 0 280.5 -55t237.5 -160t160 -238t55 -280zM1473 711
q0 134 -50 255t-145 216t-215.5 144.5t-255.5 49.5t-256 -50t-215 -144q-95 -95 -145 -216t-50 -255q0 -135 50 -256t145 -215q94 -95 215 -145t256 -50t255.5 49.5t215.5 145.5q95 94 145 215t50 256zM1096 242h-545v61q121 2 149.5 23.5t28.5 99.5v467q0 52 -15.5 73
t-51.5 21h-7l-123 -6l1 61q96 4 176 41.5t143 110.5h66v-769q9 -58 52 -87.5t125 -34.5z" />
    <glyph glyph-name="a121" unicode="&#x2461;" 
d="M1540 709q0 -148 -55 -280.5t-160 -238.5q-105 -105 -237.5 -160t-280.5 -55q-147 0 -280.5 55.5t-237.5 159.5q-105 106 -160 238.5t-55 280.5q0 147 55 280t160 238q104 104 237.5 159.5t280.5 55.5q148 0 280.5 -55t237.5 -160t160 -238t55 -280zM1473 711
q0 134 -50 255t-145 216t-215.5 144.5t-255.5 49.5t-256 -50t-215 -144q-95 -95 -145 -216t-50 -255q0 -135 50 -256t145 -215q94 -95 215 -145t256 -50t255.5 49.5t215.5 145.5q95 94 145 215t50 256zM1153 594l-8 -352h-678v34q0 110 52 195.5t200 196.5q123 90 163 152
t40 141q0 71 -38.5 118t-95.5 47q-37 0 -67.5 -23t-30.5 -50q0 -10 8.5 -34t8.5 -38q0 -39 -29 -66.5t-70 -27.5q-46 0 -73 28.5t-27 77.5q0 90 78 145.5t205 55.5q153 0 246 -68.5t93 -181.5q0 -99 -54 -165.5t-212 -141.5q-162 -77 -213 -121t-67 -100h385q70 0 94.5 33
t28.5 145h61z" />
    <glyph glyph-name="a122" unicode="&#x2462;" 
d="M1540 709q0 -148 -55 -280.5t-160 -238.5q-105 -105 -237.5 -160t-280.5 -55q-147 0 -280.5 55.5t-237.5 159.5q-105 106 -160 238.5t-55 280.5q0 147 55 280t160 238q104 104 237.5 159.5t280.5 55.5q148 0 280.5 -55t237.5 -160t160 -238t55 -280zM1473 711
q0 134 -50 255t-145 216t-215.5 144.5t-255.5 49.5t-256 -50t-215 -144q-95 -95 -145 -216t-50 -255q0 -135 50 -256t145 -215q94 -95 215 -145t256 -50t255.5 49.5t215.5 145.5q95 94 145 215t50 256zM871 764q136 -5 216 -71.5t80 -174.5q0 -127 -108.5 -208t-282.5 -81
q-142 0 -230.5 58t-88.5 149q0 51 29 80t81 29q45 0 74 -28t29 -73q0 -4 -1.5 -13t-5.5 -22q-3 -7 -5.5 -16t-2.5 -18q0 -28 30 -48t73 -20q83 0 136.5 62.5t53.5 158.5q0 91 -48 142t-134 51h-104v61h47q97 0 150.5 47.5t53.5 133.5q0 73 -38 116t-103 43q-39 0 -65.5 -17
t-28.5 -44q1 -4 3 -10q4 -12 5 -13q3 -9 4.5 -17t1.5 -15q0 -38 -27 -64.5t-65 -26.5q-42 0 -68 27t-26 70q0 82 79.5 132t211.5 50q142 0 224.5 -58.5t82.5 -158.5q0 -78 -60 -131t-174 -76z" />
    <glyph glyph-name="a123" unicode="&#x2463;" 
d="M1540 709q0 -148 -55 -280.5t-160 -238.5q-105 -105 -237.5 -160t-280.5 -55q-147 0 -280.5 55.5t-237.5 159.5q-105 106 -160 238.5t-55 280.5q0 147 55 280t160 238q104 104 237.5 159.5t280.5 55.5q148 0 280.5 -55t237.5 -160t160 -238t55 -280zM1473 711
q0 134 -50 255t-145 216t-215.5 144.5t-255.5 49.5t-256 -50t-215 -144q-95 -95 -145 -216t-50 -255q0 -135 50 -256t145 -215q94 -95 215 -145t256 -50t255.5 49.5t215.5 145.5q95 94 145 215t50 256zM1155 489h-227v-63q0 -84 25.5 -103.5t121.5 -19.5v-61h-502l1 61
q118 2 148 24t30 99v63h-381l-11 60l439 645h129v-610h227v-95zM760 1010l-287 -435h283z" />
    <glyph glyph-name="a124" unicode="&#x2464;" 
d="M1540 709q0 -148 -55 -280.5t-160 -238.5q-105 -105 -237.5 -160t-280.5 -55q-147 0 -280.5 55.5t-237.5 159.5q-105 106 -160 238.5t-55 280.5q0 147 55 280t160 238q104 104 237.5 159.5t280.5 55.5q148 0 280.5 -55t237.5 -160t160 -238t55 -280zM1473 711
q0 134 -50 255t-145 216t-215.5 144.5t-255.5 49.5t-256 -50t-215 -144q-95 -95 -145 -216t-50 -255q0 -135 50 -256t145 -215q94 -95 215 -145t256 -50t255.5 49.5t215.5 145.5q95 94 145 215t50 256zM580 739q58 42 117.5 62t123.5 20q145 0 232.5 -79t87.5 -207
q0 -139 -108 -222.5t-290 -83.5q-139 0 -226 54.5t-87 140.5q0 49 31 81t78 32q45 0 75.5 -28.5t30.5 -70.5q0 -15 -10 -39.5t-10 -33.5q0 -28 31.5 -47t78.5 -19q82 0 128 60.5t46 168.5q0 93 -46.5 152t-119.5 59q-44 0 -84.5 -26.5t-76.5 -79.5q-18 10 -38.5 18t-41.5 13
q18 135 29 267.5t14 262.5q53 -13 118 -19t203 -6q112 0 164 6t94 19q-31 -125 -93 -170t-249 -45h-12q-46 0 -87.5 1.5t-79.5 4.5z" />
    <glyph glyph-name="a125" unicode="&#x2465;" 
d="M1540 709q0 -148 -55 -280.5t-160 -238.5q-105 -105 -237.5 -160t-280.5 -55q-147 0 -280.5 55.5t-237.5 159.5q-105 106 -160 238.5t-55 280.5q0 147 55 280t160 238q104 104 237.5 159.5t280.5 55.5q148 0 280.5 -55t237.5 -160t160 -238t55 -280zM1473 711
q0 134 -50 255t-145 216t-215.5 144.5t-255.5 49.5t-256 -50t-215 -144q-95 -95 -145 -216t-50 -255q0 -135 50 -256t145 -215q94 -95 215 -145t256 -50t255.5 49.5t215.5 145.5q95 94 145 215t50 256zM618 680q56 76 119.5 110.5t145.5 34.5q122 0 203 -79.5t81 -198.5
q0 -138 -101.5 -228t-258.5 -90q-185 0 -291 125.5t-106 345.5q0 219 116 356.5t299 137.5q127 0 207 -54t80 -136q0 -49 -26.5 -78t-71.5 -29q-42 0 -69 27.5t-27 68.5q0 9 2 18t6 18q3 10 4.5 18t1.5 14q0 27 -29.5 47t-71.5 20q-107 0 -160 -108.5t-53 -327.5v-12z
M979 522q0 93 -45.5 150t-118.5 57q-82 0 -134 -61.5t-52 -159.5q0 -95 49.5 -155t126.5 -60t125.5 63.5t48.5 165.5z" />
    <glyph glyph-name="a126" unicode="&#x2466;" 
d="M1540 709q0 -148 -55 -280.5t-160 -238.5q-105 -105 -237.5 -160t-280.5 -55q-147 0 -280.5 55.5t-237.5 159.5q-105 106 -160 238.5t-55 280.5q0 147 55 280t160 238q104 104 237.5 159.5t280.5 55.5q148 0 280.5 -55t237.5 -160t160 -238t55 -280zM1473 711
q0 134 -50 255t-145 216t-215.5 144.5t-255.5 49.5t-256 -50t-215 -144q-95 -95 -145 -216t-50 -255q0 -135 50 -256t145 -215q94 -95 215 -145t256 -50t255.5 49.5t215.5 145.5q95 94 145 215t50 256zM1178 1182l-17 -33q-169 -244 -246 -401.5t-77 -253.5q0 -31 9 -77
t9 -65q0 -58 -31.5 -90.5t-87.5 -32.5q-54 0 -87.5 36.5t-33.5 96.5q0 91 91.5 243t296.5 401h-386q-46 0 -66.5 -35.5t-27.5 -132.5h-61l8 344h707z" />
    <glyph glyph-name="a127" unicode="&#x2467;" 
d="M1540 709q0 -148 -55 -280.5t-160 -238.5q-105 -105 -237.5 -160t-280.5 -55q-147 0 -280.5 55.5t-237.5 159.5q-105 106 -160 238.5t-55 280.5q0 147 55 280t160 238q104 104 237.5 159.5t280.5 55.5q148 0 280.5 -55t237.5 -160t160 -238t55 -280zM1473 711
q0 134 -50 255t-145 216t-215.5 144.5t-255.5 49.5t-256 -50t-215 -144q-95 -95 -145 -216t-50 -255q0 -135 50 -256t145 -215q94 -95 215 -145t256 -50t255.5 49.5t215.5 145.5q95 94 145 215t50 256zM930 805q111 -47 168 -118t57 -163q0 -134 -100 -214.5t-269 -80.5
q-158 0 -243.5 64t-85.5 182q0 82 51.5 149.5t148.5 112.5q-70 45 -104.5 97.5t-34.5 115.5q0 107 82 175.5t211 68.5q120 0 193 -53.5t73 -141.5q0 -57 -36.5 -105.5t-110.5 -88.5zM864 838q48 33 69 69t21 82q0 60 -40.5 99.5t-102.5 39.5q-59 0 -97 -34t-38 -86
q0 -51 45 -91.5t143 -78.5zM723 707q-67 -42 -97 -93t-30 -120q0 -87 54 -141t141 -54q80 0 131 48.5t51 125.5q0 70 -55.5 123t-194.5 111z" />
    <glyph glyph-name="a128" unicode="&#x2468;" 
d="M1540 709q0 -148 -55 -280.5t-160 -238.5q-105 -105 -237.5 -160t-280.5 -55q-147 0 -280.5 55.5t-237.5 159.5q-105 106 -160 238.5t-55 280.5q0 147 55 280t160 238q104 104 237.5 159.5t280.5 55.5q148 0 280.5 -55t237.5 -160t160 -238t55 -280zM1473 711
q0 134 -50 255t-145 216t-215.5 144.5t-255.5 49.5t-256 -50t-215 -144q-95 -95 -145 -216t-50 -255q0 -135 50 -256t145 -215q94 -95 215 -145t256 -50t255.5 49.5t215.5 145.5q95 94 145 215t50 256zM985 743q-55 -75 -119 -110t-145 -35q-123 0 -204 79.5t-81 199.5
q0 137 102 227t259 90q185 0 291 -125.5t106 -345.5q0 -219 -115.5 -356.5t-300.5 -137.5q-126 0 -206 54t-80 137q0 49 26.5 77.5t71.5 28.5q41 0 68.5 -27t27.5 -69q0 -8 -2 -16.5t-6 -18.5q-3 -10 -4.5 -18.5t-1.5 -14.5q0 -28 28.5 -47.5t71.5 -19.5q106 0 159.5 109
t53.5 327v12zM975 915q0 94 -50.5 154.5t-125.5 60.5q-78 0 -126 -63t-48 -166q0 -93 45 -150t118 -57q83 0 135 61.5t52 159.5z" />
    <glyph glyph-name="a129" unicode="&#x2469;" 
d="M1540 709q0 -148 -55 -280.5t-160 -238.5q-105 -105 -237.5 -160t-280.5 -55q-147 0 -280.5 55.5t-237.5 159.5q-105 106 -160 238.5t-55 280.5q0 147 55 280t160 238q104 104 237.5 159.5t280.5 55.5q148 0 280.5 -55t237.5 -160t160 -238t55 -280zM1473 711
q0 134 -50 255t-145 216t-215.5 144.5t-255.5 49.5t-256 -50t-215 -144q-95 -95 -145 -216t-50 -255q0 -135 50 -256t145 -215q94 -95 215 -145t256 -50t255.5 49.5t215.5 145.5q95 94 145 215t50 256zM1350 713q0 -230 -81 -357t-227 -127q-145 0 -226 127t-81 357
q0 229 81 355t226 126t226.5 -126.5t81.5 -354.5zM774 242h-405v61q64 2 89 28.5t25 94.5v467q0 51 -15 72.5t-50 21.5h-8l-95 -6v61q94 4 159.5 38t109.5 102h65v-756q0 -70 26 -95t99 -28v-61zM1153 713q0 224 -26 318.5t-85 94.5t-84.5 -94.5t-25.5 -318.5
q0 -226 25.5 -321t84.5 -95q60 0 85.5 95t25.5 321z" />
    <glyph glyph-name="a130" unicode="&#x2776;" 
d="M1540 709q0 -148 -55 -280.5t-160 -238.5q-105 -105 -237.5 -160t-280.5 -55q-147 0 -280.5 55.5t-237.5 159.5q-105 106 -160 238.5t-55 280.5q0 147 55 280t160 238q104 104 237.5 159.5t280.5 55.5q148 0 280.5 -55t237.5 -160t160 -238t55 -280zM1124 195v67
q-90 6 -138 39t-58 96v846h-72q-69 -81 -156.5 -123t-193.5 -45v-67l135 8h8q40 0 56 -23t16 -82v-514q0 -86 -33 -110.5t-164 -24.5v-67h600z" />
    <glyph glyph-name="a131" unicode="&#x2777;" 
d="M1540 709q0 -148 -55 -280.5t-160 -238.5q-105 -105 -237.5 -160t-280.5 -55q-147 0 -280.5 55.5t-237.5 159.5q-105 106 -160 238.5t-55 280.5q0 147 55 280t160 238q104 104 237.5 159.5t280.5 55.5q148 0 280.5 -55t237.5 -160t160 -238t55 -280zM1188 582l-68 -1
q-3 -119 -29.5 -156.5t-105.5 -37.5h-424q20 65 78.5 115.5t214.5 122.5q184 86 246.5 160t62.5 184q0 122 -103 198t-272 76q-140 0 -225.5 -61t-85.5 -160q0 -54 30 -85.5t81 -31.5q42 0 75 31t33 70q0 11 -9 38t-9 43q0 31 33 55.5t75 24.5q63 0 105.5 -51.5t42.5 -130.5
q0 -84 -41.5 -149.5t-181.5 -171.5q-170 -129 -224.5 -220t-54.5 -211v-38h748z" />
    <glyph glyph-name="a132" unicode="&#x2778;" 
d="M1540 709q0 -148 -55 -280.5t-160 -238.5q-105 -105 -237.5 -160t-280.5 -55q-147 0 -280.5 55.5t-237.5 159.5q-105 106 -160 238.5t-55 280.5q0 147 55 280t160 238q104 104 237.5 159.5t280.5 55.5q148 0 280.5 -55t237.5 -160t160 -238t55 -280zM762 723
q95 0 148 -56t53 -157q0 -107 -59 -175.5t-150 -68.5q-49 0 -81 23t-32 57q0 12 7 35t7 37q0 48 -31.5 79t-80.5 31q-56 0 -88.5 -32t-32.5 -86q0 -100 97.5 -164t252.5 -64q191 0 311.5 89t120.5 229q0 118 -88.5 191.5t-238.5 78.5v6q126 25 192 83t66 145q0 109 -92 174
t-248 65q-143 0 -231.5 -56t-88.5 -145q0 -47 29 -76.5t76 -29.5q42 0 71 30.5t29 75.5q0 13 -6.5 30t-7.5 23q3 30 31.5 49t70.5 19q71 0 113.5 -47.5t42.5 -128.5q0 -94 -58.5 -145t-167.5 -51h-51v-68h115z" />
    <glyph glyph-name="a133" unicode="&#x2779;" 
d="M1540 709q0 -148 -55 -280.5t-160 -238.5q-105 -105 -237.5 -160t-280.5 -55q-147 0 -280.5 55.5t-237.5 159.5q-105 106 -160 238.5t-55 280.5q0 147 55 280t160 238q104 104 237.5 159.5t280.5 55.5q148 0 280.5 -55t237.5 -160t160 -238t55 -280zM1190 467v104h-250
v672h-141l-484 -711l13 -65h417v-70q0 -85 -31.5 -109t-162.5 -26v-67h551l-1 67q-107 2 -134 23t-27 112v70h250zM756 1040l-6 -479h-310z" />
    <glyph glyph-name="a134" unicode="&#x277a;" 
d="M1540 709q0 -148 -55 -280.5t-160 -238.5q-105 -105 -237.5 -160t-280.5 -55q-147 0 -280.5 55.5t-237.5 159.5q-105 106 -160 238.5t-55 280.5q0 147 55 280t160 238q104 104 237.5 159.5t280.5 55.5q148 0 280.5 -55t237.5 -160t160 -238t55 -280zM559 625q42 60 86 89
t92 29q79 0 131 -65t52 -168q0 -119 -50.5 -185.5t-140.5 -66.5q-51 0 -87 21.5t-36 50.5q0 8 11.5 35t11.5 47q0 46 -33.5 77t-83.5 31q-51 0 -85 -35.5t-34 -89.5q0 -93 95.5 -153t248.5 -60q199 0 318 91.5t119 242.5q0 143 -96.5 230.5t-254.5 87.5q-67 0 -132.5 -22.5
t-133.5 -68.5l25 271q47 -4 100.5 -6t118.5 -2q183 0 252 49.5t104 187.5q-50 -15 -111 -22t-172 -7q-138 0 -215.5 7t-140.5 22q-3 -143 -14.5 -289t-32.5 -295q21 -4 43.5 -13t44.5 -21z" />
    <glyph glyph-name="a135" unicode="&#x277b;" 
d="M1540 709q0 -148 -55 -280.5t-160 -238.5q-105 -105 -237.5 -160t-280.5 -55q-147 0 -280.5 55.5t-237.5 159.5q-105 106 -160 238.5t-55 280.5q0 147 55 280t160 238q104 104 237.5 159.5t280.5 55.5q148 0 280.5 -55t237.5 -160t160 -238t55 -280zM600 678v24
q0 235 58.5 352t175.5 117q45 0 77.5 -22.5t32.5 -52.5q0 -10 -8 -34.5t-8 -39.5q0 -48 29.5 -77.5t76.5 -29.5q50 0 79.5 32t29.5 85q0 91 -89 151t-227 60q-200 0 -328 -151.5t-128 -391.5q0 -242 116.5 -380t319.5 -138q173 0 285 99t112 249q0 130 -90.5 219t-222.5 89
q-89 0 -159.5 -38.5t-131.5 -121.5zM995 504q0 -114 -52.5 -183t-137.5 -69q-84 0 -139.5 66t-55.5 169q0 109 57 176.5t148 67.5q80 0 130 -62.5t50 -164.5z" />
    <glyph glyph-name="a136" unicode="&#x277c;" 
d="M1540 709q0 -148 -55 -280.5t-160 -238.5q-105 -105 -237.5 -160t-280.5 -55q-147 0 -280.5 55.5t-237.5 159.5q-105 106 -160 238.5t-55 280.5q0 147 55 280t160 238q104 104 237.5 159.5t280.5 55.5q148 0 280.5 -55t237.5 -160t160 -238t55 -280zM1204 1229h-766
l-10 -379h68q6 106 29.5 146t74.5 40h424q-226 -275 -326 -442t-100 -266q0 -65 37 -105.5t96 -40.5q60 0 94.5 34t34.5 91q0 29 -9 82t-9 82q0 107 83.5 278t270.5 443z" />
    <glyph glyph-name="a137" unicode="&#x277d;" 
d="M1540 709q0 -148 -55 -280.5t-160 -238.5q-105 -105 -237.5 -160t-280.5 -55q-147 0 -280.5 55.5t-237.5 159.5q-105 106 -160 238.5t-55 280.5q0 147 55 280t160 238q104 104 237.5 159.5t280.5 55.5q148 0 280.5 -55t237.5 -160t160 -238t55 -280zM643 739
q-108 -51 -164.5 -124.5t-56.5 -161.5q0 -129 94.5 -200t267.5 -71q183 0 294.5 87.5t111.5 228.5q0 106 -62 185.5t-186 131.5q82 43 122 96t40 117q0 96 -81 155.5t-212 59.5q-142 0 -232 -75.5t-90 -192.5q0 -68 38 -126t116 -110zM870 850q-109 43 -157.5 87.5
t-48.5 100.5q0 58 41 95.5t106 37.5q68 0 113 -43.5t45 -109.5q0 -51 -24 -92t-75 -76zM715 707q150 -62 212 -121t62 -137q0 -84 -56 -137.5t-145 -53.5q-96 0 -154.5 58.5t-58.5 154.5q0 77 34 134t106 102z" />
    <glyph glyph-name="a138" unicode="&#x277e;" 
d="M1540 709q0 -148 -55 -280.5t-160 -238.5q-105 -105 -237.5 -160t-280.5 -55q-147 0 -280.5 55.5t-237.5 159.5q-105 106 -160 238.5t-55 280.5q0 147 55 280t160 238q104 104 237.5 159.5t280.5 55.5q148 0 280.5 -55t237.5 -160t160 -238t55 -280zM1004 748v-13
q0 -241 -59 -361t-177 -120q-48 0 -79.5 21t-31.5 53q0 12 8.5 36t8.5 37q0 46 -30.5 76.5t-76.5 30.5q-48 0 -77 -32t-29 -85q0 -91 88 -150t227 -59q202 0 329.5 151.5t127.5 391.5q0 241 -117.5 379.5t-320.5 138.5q-172 0 -284 -99t-112 -251q0 -131 90 -218t224 -87
q90 0 159.5 38t131.5 122zM991 936q0 -108 -57 -176t-148 -68q-80 0 -130 62.5t-50 165.5q0 112 54 183t139 71q83 0 137.5 -67t54.5 -171z" />
    <glyph glyph-name="a139" unicode="&#x277f;" 
d="M1540 709q0 -148 -55 -280.5t-160 -238.5q-105 -105 -237.5 -160t-280.5 -55q-147 0 -280.5 55.5t-237.5 159.5q-105 106 -160 238.5t-55 280.5q0 147 55 280t160 238q104 104 237.5 159.5t280.5 55.5q148 0 280.5 -55t237.5 -160t160 -238t55 -280zM1405 713
q0 252 -89 391t-249 139t-250 -139.5t-90 -390.5q0 -252 89.5 -391.5t250.5 -139.5q160 0 249 139.5t89 391.5zM770 195v67q-81 2 -109 29t-28 106v832h-72q-50 -76 -122 -113.5t-172 -40.5l-1 -67l105 8h10q38 0 54 -23.5t16 -81.5v-514q0 -74 -27.5 -103.5t-97.5 -31.5
v-41l26 -26h418zM1188 713q0 -248 -28 -352.5t-93 -104.5q-66 0 -94.5 104t-28.5 353q0 248 28.5 351t94.5 103q65 0 93 -103.5t28 -350.5z" />
    <glyph glyph-name="a140" unicode="&#x2780;" 
d="M1540 709q0 -148 -55 -280.5t-160 -238.5q-105 -105 -237.5 -160t-280.5 -55q-147 0 -280.5 55.5t-237.5 159.5q-105 106 -160 238.5t-55 280.5q0 147 55 280t160 238q104 104 237.5 159.5t280.5 55.5q148 0 280.5 -55t237.5 -160t160 -238t55 -280zM1473 711
q0 134 -50 255t-145 216t-215.5 144.5t-255.5 49.5t-256 -50t-215 -144q-95 -95 -145 -216t-50 -255q0 -135 50 -256t145 -215q94 -95 215 -145t256 -50t255.5 49.5t215.5 145.5q95 94 145 215t50 256zM881 242h-117v719h-195v73q109 0 164 38t72 122h76v-952z" />
    <glyph glyph-name="a141" unicode="&#x2781;" 
d="M1540 709q0 -148 -55 -280.5t-160 -238.5q-105 -105 -237.5 -160t-280.5 -55q-147 0 -280.5 55.5t-237.5 159.5q-105 106 -160 238.5t-55 280.5q0 147 55 280t160 238q104 104 237.5 159.5t280.5 55.5q148 0 280.5 -55t237.5 -160t160 -238t55 -280zM1473 711
q0 134 -50 255t-145 216t-215.5 144.5t-255.5 49.5t-256 -50t-215 -144q-95 -95 -145 -216t-50 -255q0 -135 50 -256t145 -215q94 -95 215 -145t256 -50t255.5 49.5t215.5 145.5q95 94 145 215t50 256zM500 889q5 144 83.5 224.5t213.5 80.5q136 0 223.5 -83.5t87.5 -211.5
q0 -191 -307 -393l-29 -19q-71 -46 -99.5 -77t-31.5 -61l451 -1v-106h-586q0 103 45 179t145 142q9 6 28 19q255 169 255 321q0 84 -53.5 138.5t-137.5 54.5q-82 0 -127 -57t-45 -162z" />
    <glyph glyph-name="a142" unicode="&#x2782;" 
d="M1540 708q0 -148 -55 -280.5t-160 -237.5q-105 -106 -237.5 -160.5t-280.5 -54.5q-109 0 -212 31.5t-196 92.5q-154 104 -239.5 264t-85.5 345q0 147 55 280t160 238q104 104 237.5 159.5t280.5 55.5t280.5 -55.5t237.5 -159.5q105 -105 160 -238t55 -280zM1473 710
q0 99 -28.5 192t-84.5 176q-94 141 -239.5 219t-313.5 78q-135 0 -255.5 -50t-215.5 -144q-95 -95 -145 -216t-50 -255q0 -135 50 -256t145 -215q95 -95 215.5 -145t255.5 -50t255.5 50t215.5 145q95 94 145 215t50 256zM942 734q95 -41 137.5 -96t42.5 -135
q0 -121 -84.5 -198t-218.5 -77q-149 0 -227 72.5t-80 210.5l119 18q2 -92 49 -141t133 -49t133 45.5t47 128.5q0 90 -61 131t-195 41h-16v90h18q121 0 176.5 40t55.5 126q0 70 -44.5 111t-119.5 41q-78 0 -120 -43t-44 -123l-116 10q7 117 83 186.5t197 69.5
q128 0 208.5 -71t80.5 -181q0 -75 -35 -121.5t-119 -81.5v-4z" />
    <glyph glyph-name="a143" unicode="&#x2783;" 
d="M1540 709q0 -148 -55 -280.5t-160 -238.5q-105 -105 -237.5 -160t-280.5 -55q-147 0 -280.5 55.5t-237.5 159.5q-105 106 -160 238.5t-55 280.5q0 147 55 280t160 238q104 104 237.5 159.5t280.5 55.5q148 0 280.5 -55t237.5 -160t160 -238t55 -280zM1473 711
q0 134 -50 255t-145 216t-215.5 144.5t-255.5 49.5t-256 -50t-215 -144q-95 -95 -145 -216t-50 -255q0 -135 50 -256t145 -215q94 -95 215 -145t256 -50t255.5 49.5t215.5 145.5q95 94 145 215t50 256zM1094 477h-148v-235h-110v235h-428v111l428 606h110v-610h148v-107z
M836 584v444l-318 -444h318z" />
    <glyph glyph-name="a144" unicode="&#x2784;" 
d="M1540 709q0 -148 -55 -280.5t-160 -238.5q-105 -105 -237.5 -160t-280.5 -55q-147 0 -280.5 55.5t-237.5 159.5q-105 106 -160 238.5t-55 280.5q0 147 55 280t160 238q104 104 237.5 159.5t280.5 55.5q148 0 280.5 -55t237.5 -160t160 -238t55 -280zM1473 711
q0 134 -50 255t-145 216t-215.5 144.5t-255.5 49.5t-256 -50t-215 -144q-95 -95 -145 -216t-50 -255q0 -135 50 -256t145 -215q94 -95 215 -145t256 -50t255.5 49.5t215.5 145.5q95 94 145 215t50 256zM651 811q38 44 82.5 64t104.5 20q130 0 210 -86t80 -225
q0 -159 -90.5 -257t-238.5 -98q-121 0 -193.5 67t-81.5 185l111 18q9 -81 51 -123t115 -42q96 0 148 64t52 182q0 102 -47 158.5t-133 56.5q-66 0 -111.5 -40t-70.5 -118h-92v545h508v-107h-404v-264z" />
    <glyph glyph-name="a145" unicode="&#x2785;" 
d="M1540 709q0 -148 -55 -280.5t-160 -238.5q-105 -105 -237.5 -160t-280.5 -55q-147 0 -280.5 55.5t-237.5 159.5q-105 106 -160 238.5t-55 280.5q0 147 55 280t160 238q104 104 237.5 159.5t280.5 55.5q148 0 280.5 -55t237.5 -160t160 -238t55 -280zM1473 711
q0 134 -50 255t-145 216t-215.5 144.5t-255.5 49.5t-256 -50t-215 -144q-95 -95 -145 -216t-50 -255q0 -135 50 -256t145 -215q94 -95 215 -145t256 -50t255.5 49.5t215.5 145.5q95 94 145 215t50 256zM600 725q43 66 97 97.5t124 31.5q123 0 201 -82t78 -213
q0 -147 -84.5 -238.5t-218.5 -91.5q-161 0 -240.5 117t-79.5 354t89.5 365.5t252.5 128.5q105 0 172.5 -57t87.5 -162l-106 -23q-14 73 -54.5 110.5t-105.5 37.5q-103 0 -157 -95.5t-56 -279.5zM981 541q0 101 -46.5 158t-127.5 57q-88 0 -142.5 -56t-54.5 -147
q0 -104 52.5 -164.5t142.5 -60.5q83 0 129.5 56t46.5 157z" />
    <glyph glyph-name="a146" unicode="&#x2786;" 
d="M1540 709q0 -148 -55 -280.5t-160 -238.5q-105 -105 -237.5 -160t-280.5 -55q-147 0 -280.5 55.5t-237.5 159.5q-105 106 -160 238.5t-55 280.5q0 147 55 280t160 238q104 104 237.5 159.5t280.5 55.5q148 0 280.5 -55t237.5 -160t160 -238t55 -280zM1473 711
q0 134 -50 255t-145 216t-215.5 144.5t-255.5 49.5t-256 -50t-215 -144q-95 -95 -145 -216t-50 -255q0 -135 50 -256t145 -215q94 -95 215 -145t256 -50t255.5 49.5t215.5 145.5q95 94 145 215t50 256zM1100 1073q-137 -189 -218.5 -396.5t-109.5 -434.5h-137
q29 231 115 436.5t231 388.5h-494v115h613v-109z" />
    <glyph glyph-name="a147" unicode="&#x2787;" 
d="M1540 709q0 -148 -55 -280.5t-160 -238.5q-105 -105 -237.5 -160t-280.5 -55q-147 0 -280.5 55.5t-237.5 159.5q-105 106 -160 238.5t-55 280.5q0 147 55 280t160 238q104 104 237.5 159.5t280.5 55.5q148 0 280.5 -55t237.5 -160t160 -238t55 -280zM1473 711
q0 134 -50 255t-145 216t-215.5 144.5t-255.5 49.5t-256 -50t-215 -144q-95 -95 -145 -216t-50 -255q0 -135 50 -256t145 -215q94 -95 215 -145t256 -50t255.5 49.5t215.5 145.5q95 94 145 215t50 256zM946 741q86 -40 127 -98t41 -139q0 -126 -83 -200.5t-224 -74.5
q-142 0 -224.5 74t-82.5 201q0 83 41 141t127 96q-70 31 -103 82t-33 127q0 107 77 175.5t198 68.5q123 0 198.5 -70.5t75.5 -183.5q0 -70 -32.5 -118t-102.5 -81zM967 938q0 78 -43.5 124t-116.5 46t-116.5 -46t-43.5 -122q0 -75 42 -116.5t118 -41.5q78 0 119 40t41 116z
M991 500q0 84 -51.5 137t-132.5 53q-82 0 -133 -53t-51 -137q0 -79 50 -125.5t134 -46.5t134 46.5t50 125.5z" />
    <glyph glyph-name="a148" unicode="&#x2788;" 
d="M1540 709q0 -148 -55 -280.5t-160 -238.5q-105 -105 -237.5 -160t-280.5 -55q-147 0 -280.5 55.5t-237.5 159.5q-105 106 -160 238.5t-55 280.5q0 147 55 280t160 238q104 104 237.5 159.5t280.5 55.5q148 0 280.5 -55t237.5 -160t160 -238t55 -280zM1473 711
q0 134 -50 255t-145 216t-215.5 144.5t-255.5 49.5t-256 -50t-215 -144q-95 -95 -145 -216t-50 -255q0 -135 50 -256t145 -215q94 -95 215 -145t256 -50t255.5 49.5t215.5 145.5q95 94 145 215t50 256zM993 698q-44 -66 -98 -97.5t-123 -31.5q-123 0 -200.5 82.5
t-77.5 212.5q0 148 84 239t219 91q160 0 238.5 -116.5t78.5 -354.5q0 -237 -88.5 -365.5t-251.5 -128.5q-107 0 -173.5 56.5t-86.5 163.5l107 22q13 -74 53 -110.5t106 -36.5q103 0 157.5 95.5t55.5 278.5zM983 870q0 104 -52.5 165t-142.5 61q-83 0 -129.5 -56t-46.5 -157
t46.5 -158t127.5 -57q87 0 142 56.5t55 145.5z" />
    <glyph glyph-name="a149" unicode="&#x2789;" 
d="M1540 709q0 -148 -55 -280.5t-160 -238.5q-105 -105 -237.5 -160t-280.5 -55q-147 0 -280.5 55.5t-237.5 159.5q-105 106 -160 238.5t-55 280.5q0 147 55 280t160 238q104 104 237.5 159.5t280.5 55.5q148 0 280.5 -55t237.5 -160t160 -238t55 -280zM1473 711
q0 134 -50 255t-145 216t-215.5 144.5t-255.5 49.5t-256 -50t-215 -144q-95 -95 -145 -216t-50 -255q0 -135 50 -256t145 -215q94 -95 215 -145t256 -50t255.5 49.5t215.5 145.5q95 94 145 215t50 256zM1288 713q0 -240 -73.5 -362t-219.5 -122t-219.5 121.5t-73.5 362.5
q0 234 75.5 357.5t217.5 123.5q144 0 218.5 -122.5t74.5 -358.5zM582 242h-115v719h-152l1 73q78 5 126.5 44t69.5 116h70v-952zM1169 713q0 196 -43.5 295.5t-130.5 99.5q-90 0 -132 -95.5t-42 -299.5q0 -202 43 -300t131 -98t131 99.5t43 298.5z" />
    <glyph glyph-name="a150" unicode="&#x278a;" 
d="M1540 709q0 -148 -55 -280.5t-160 -238.5q-105 -105 -237.5 -160t-280.5 -55q-147 0 -280.5 55.5t-237.5 159.5q-105 106 -160 238.5t-55 280.5q0 147 55 280t160 238q104 104 237.5 159.5t280.5 55.5q148 0 280.5 -55t237.5 -160t160 -238t55 -280zM909 227v981h-127
q-15 -86 -67.5 -122.5t-163.5 -36.5h-10v-131h194v-691h174z" />
    <glyph glyph-name="a151" unicode="&#x278b;" 
d="M1540 709q0 -148 -55 -280.5t-160 -238.5q-105 -105 -237.5 -160t-280.5 -55q-147 0 -280.5 55.5t-237.5 159.5q-105 106 -160 238.5t-55 280.5q0 147 55 280t160 238q104 104 237.5 159.5t280.5 55.5q148 0 280.5 -55t237.5 -160t160 -238t55 -280zM682 362
q22 32 120 96q25 17 38 25q12 9 38 26q99 66 140 103q57 54 88 125t31 148q0 148 -92 235.5t-248 87.5t-239 -84t-83 -241v-6l170 -19v8q0 107 37 161t109 54t115.5 -50t43.5 -134q0 -80 -42 -141.5t-148 -130.5q-25 -17 -70 -46q-109 -69 -137 -102q-39 -46 -57.5 -104
t-18.5 -133q0 -5 -0.5 -8t-0.5 -5h644v135h-438z" />
    <glyph glyph-name="a152" unicode="&#x278c;" 
d="M1540 709q0 -148 -55 -280.5t-160 -238.5q-105 -105 -237.5 -160t-280.5 -55q-147 0 -280.5 55.5t-237.5 159.5q-105 106 -160 238.5t-55 280.5q0 147 55 280t160 238q104 104 237.5 159.5t280.5 55.5q148 0 280.5 -55t237.5 -160t160 -238t55 -280zM483 502
q0 -147 82 -217t254 -70q156 0 244 73t88 201q0 85 -37.5 140.5t-120.5 93.5q69 33 100 81t31 124q0 128 -85.5 204t-231.5 76q-142 0 -222.5 -75.5t-86.5 -214.5l173 -15q2 89 35.5 132.5t100.5 43.5q63 0 99 -40.5t36 -110.5q0 -77 -50.5 -114.5t-152.5 -37.5h-47v-119h45
q116 0 172 -38.5t56 -118.5q0 -71 -39 -108.5t-113 -37.5q-82 0 -118 40.5t-36 133.5z" />
    <glyph glyph-name="a153" unicode="&#x278d;" 
d="M1540 709q0 -148 -55 -280.5t-160 -238.5q-105 -105 -237.5 -160t-280.5 -55q-147 0 -280.5 55.5t-237.5 159.5q-105 106 -160 238.5t-55 280.5q0 147 55 280t160 238q104 104 237.5 159.5t280.5 55.5q148 0 280.5 -55t237.5 -160t160 -238t55 -280zM1122 463v135h-147
v610h-154l-442 -626v-119h428v-236h168v236h147zM807 598h-234l234 326v-326z" />
    <glyph glyph-name="a154" unicode="&#x278e;" 
d="M1540 709q0 -148 -55 -280.5t-160 -238.5q-105 -105 -237.5 -160t-280.5 -55q-147 0 -280.5 55.5t-237.5 159.5q-105 106 -160 238.5t-55 280.5q0 147 55 280t160 238q104 104 237.5 159.5t280.5 55.5q148 0 280.5 -55t237.5 -160t160 -238t55 -280zM494 492
q10 -139 86 -208t219 -69q165 0 261.5 96t96.5 260q0 160 -84.5 249t-234.5 89q-51 0 -89 -15.5t-69 -49.5v217h403v135h-565v-588h144q13 86 53 129t106 43q70 0 111 -57t41 -156q0 -105 -45 -162t-127 -57q-67 0 -101.5 43.5t-36.5 126.5z" />
    <glyph glyph-name="a155" unicode="&#x278f;" 
d="M1540 709q0 -148 -55 -280.5t-160 -238.5q-105 -105 -237.5 -160t-280.5 -55q-147 0 -280.5 55.5t-237.5 159.5q-105 106 -160 238.5t-55 280.5q0 147 55 280t160 238q104 104 237.5 159.5t280.5 55.5q148 0 280.5 -55t237.5 -160t160 -238t55 -280zM1112 958
q-23 126 -95.5 188t-197.5 62q-179 0 -273.5 -126.5t-94.5 -366.5q0 -251 86 -375.5t260 -124.5q146 0 238.5 100t92.5 258q0 139 -84.5 224.5t-222.5 85.5q-51 0 -97.5 -17.5t-90.5 -52.5q10 134 56 203t124 69q55 0 89 -40t48 -121zM952 555q0 -97 -40.5 -155t-106.5 -58
q-74 0 -120 62t-46 163q0 80 47 134.5t115 54.5q70 0 110.5 -53.5t40.5 -147.5z" />
    <glyph glyph-name="a156" unicode="&#x2790;" 
d="M1540 709q0 -148 -55 -280.5t-160 -238.5q-105 -105 -237.5 -160t-280.5 -55q-147 0 -280.5 55.5t-237.5 159.5q-105 106 -160 238.5t-55 280.5q0 147 55 280t160 238q104 104 237.5 159.5t280.5 55.5q148 0 280.5 -55t237.5 -160t160 -238t55 -280zM1128 1049v147h-669
v-172h463q-134 -172 -212.5 -369.5t-105.5 -427.5h195q28 234 109.5 437t219.5 385z" />
    <glyph glyph-name="a157" unicode="&#x2791;" 
d="M1540 709q0 -148 -55 -280.5t-160 -238.5q-105 -105 -237.5 -160t-280.5 -55q-147 0 -280.5 55.5t-237.5 159.5q-105 106 -160 238.5t-55 280.5q0 147 55 280t160 238q104 104 237.5 159.5t280.5 55.5q148 0 280.5 -55t237.5 -160t160 -238t55 -280zM604 739
q-68 -43 -100.5 -98.5t-32.5 -128.5q0 -137 90 -217t246 -80q154 0 245 80.5t91 216.5q0 73 -33 128.5t-102 98.5q53 42 77.5 90t24.5 113q0 123 -81.5 194.5t-221.5 71.5q-137 0 -220 -70.5t-83 -187.5q0 -67 23.5 -117t76.5 -94zM807 1094q58 0 94.5 -42.5t36.5 -111.5
q0 -70 -34.5 -108.5t-96.5 -38.5q-61 0 -96 39.5t-35 109.5q0 66 37 109t94 43zM963 508q0 -72 -44.5 -119t-111.5 -47q-68 0 -112 46.5t-44 119.5q0 72 44 118t112 46t112 -46t44 -118z" />
    <glyph glyph-name="a158" unicode="&#x2792;" 
d="M1540 709q0 -148 -55 -280.5t-160 -238.5q-105 -105 -237.5 -160t-280.5 -55q-147 0 -280.5 55.5t-237.5 159.5q-105 106 -160 238.5t-55 280.5q0 147 55 280t160 238q104 104 237.5 159.5t280.5 55.5q148 0 280.5 -55t237.5 -160t160 -238t55 -280zM481 465
q23 -126 96 -188t197 -62q179 0 274 127t95 367q0 250 -86.5 374.5t-259.5 124.5q-146 0 -239 -100t-93 -258q0 -139 84.5 -224t222.5 -85q51 0 97.5 17t91.5 52q-11 -133 -57 -202.5t-124 -69.5q-54 0 -87.5 39.5t-49.5 122.5zM954 864q0 -84 -46.5 -140t-114.5 -56
q-71 0 -111.5 53t-40.5 147q0 97 40.5 155t106.5 58q72 0 119 -62t47 -155z" />
    <glyph glyph-name="a159" unicode="&#x2793;" 
d="M1540 709q0 -148 -55 -280.5t-160 -238.5q-105 -105 -237.5 -160t-280.5 -55q-147 0 -280.5 55.5t-237.5 159.5q-105 106 -160 238.5t-55 280.5q0 147 55 280t160 238q104 104 237.5 159.5t280.5 55.5q148 0 280.5 -55t237.5 -160t160 -238t55 -280zM1317 719
q0 241 -82 365t-240 124t-239.5 -123.5t-81.5 -365.5q0 -252 80 -378t241 -126q158 0 240 128.5t82 375.5zM610 227v969h-121q-19 -78 -67 -113t-135 -37v-100h151v-719h172zM1141 719q0 -209 -34 -299t-112 -90q-77 0 -111 90t-34 299q0 201 34 288t111 87q75 0 110.5 -91
t35.5 -284z" />
    <glyph glyph-name="a160" unicode="&#x2794;" horiz-adv-x="1831" 
d="M1769 711l-585 -589h-383l456 451h-1194v275h1194l-456 451h383z" />
    <glyph glyph-name="a161" unicode="&#x2192;" horiz-adv-x="1716" 
d="M1645 709q-153 -64 -280 -158.5t-230 -220.5q-1 7 -1.5 15t-0.5 20q0 75 40.5 154t122.5 163h-1224v53h1224q-83 85 -123 163t-40 155q0 13 0.5 21t1.5 13q104 -127 231 -221t279 -157z" />
    <glyph glyph-name="a163" unicode="&#x2194;" horiz-adv-x="2081" 
d="M1999 709q-152 -64 -279.5 -158.5t-230.5 -220.5q-1 5 -1.5 12t-0.5 23q0 75 40.5 154t123.5 163h-1221q82 -83 123 -162.5t41 -154.5q0 -11 -0.5 -19t-1.5 -16q-103 126 -230.5 220.5t-279.5 158.5q150 62 277 156t233 222q1 -9 1.5 -17t0.5 -17q0 -75 -41 -155
t-123 -163h1221q-83 84 -123.5 163t-40.5 155q0 14 0.5 21t1.5 13q108 -129 235 -223.5t275 -154.5z" />
    <glyph glyph-name="a164" unicode="&#x2195;" horiz-adv-x="938" 
d="M848 260q-126 -102 -220.5 -229t-158.5 -281q-62 150 -156.5 277t-222.5 233q10 1 18.5 1.5t16.5 0.5q75 0 154.5 -41t162.5 -123v1221q-85 -84 -164.5 -124t-160.5 -40q-9 0 -14.5 0.5t-11.5 2.5q129 107 223.5 234t154.5 275q64 -153 158.5 -280.5t219.5 -228.5
q-5 -2 -12 -2.5t-22 -0.5q-75 0 -151.5 39t-165.5 125v-1221q83 82 162.5 123t154.5 41q9 0 17.5 -0.5t17.5 -1.5z" />
    <glyph glyph-name="a196" unicode="&#x2798;" horiz-adv-x="1532" 
d="M1473 174l-801 102l172 242l-785 451l191 272l688 -588l172 244z" />
    <glyph glyph-name="a165" unicode="&#x2799;" horiz-adv-x="1892" 
d="M1837 709l-821 -430l166 368l-1127 -133v387l1127 -131l-166 367z" />
    <glyph glyph-name="a192" unicode="&#x279a;" horiz-adv-x="1532" 
d="M1473 1241l-363 -723l-172 244l-688 -588l-191 272l785 451l-172 242z" />
    <glyph glyph-name="a166" unicode="&#x279b;" horiz-adv-x="1880" 
d="M1817 709q-430 -80 -739.5 -176.5t-516.5 -215.5q50 102 107.5 194t124.5 175l-730 -20v86l730 -21q-67 83 -124.5 175t-107.5 194q206 -119 515.5 -215.5t740.5 -175.5z" />
    <glyph glyph-name="a167" unicode="&#x279c;" horiz-adv-x="1898" 
d="M1825 709l-518 -582q-28 -31 -64 -47.5t-76 -16.5q-76 0 -128 50t-52 123q0 40 15.5 77t44.5 66l141 141h-926q-79 0 -133.5 54t-54.5 135q0 79 54.5 133.5t133.5 54.5h926l-141 162q-30 32 -45 66.5t-15 68.5q0 65 53.5 112.5t126.5 47.5q41 0 77.5 -17t62.5 -47z" />
    <glyph glyph-name="a168" unicode="&#x279d;" horiz-adv-x="1901" 
d="M1831 709l-453 -453v420h-1310v65h1310v420z" />
    <glyph glyph-name="a169" unicode="&#x279e;" horiz-adv-x="1901" 
d="M1831 709l-453 -453v338h-1310v229h1310v338z" />
    <glyph glyph-name="a170" unicode="&#x279f;" horiz-adv-x="1708" 
d="M1626 709l-452 -392v215h-533v353h533v215zM582 532h-154v353h154v-353zM352 532h-102v353h102v-353zM123 532h-51v353h51v-353z" />
    <glyph glyph-name="a171" unicode="&#x27a0;" horiz-adv-x="1788" 
d="M1712 709q-173 -88 -296.5 -217t-196.5 -297h-17v215h-360v598h360v215h17q74 -170 197.5 -298.5t295.5 -215.5zM791 410h-152v598h152v-598zM565 410h-110v598h110v-598zM340 410h-70v598h70v-598zM125 410h-49v598h49v-598z" />
    <glyph glyph-name="a172" unicode="&#x27a1;" horiz-adv-x="1696" 
d="M1624 709l-494 -494v195h-1058v598h1058v194z" />
    <glyph glyph-name="a173" unicode="&#x27a2;" horiz-adv-x="1892" 
d="M1823 709l-1753 -516l594 516l-594 516zM1610 709l-1295 376l445 -376h850z" />
    <glyph glyph-name="a162" unicode="&#x27a3;" horiz-adv-x="1892" 
d="M1823 709l-1753 -516l594 516l-594 516zM1610 709h-850l-445 -377z" />
    <glyph glyph-name="a174" unicode="&#x27a4;" horiz-adv-x="1878" 
d="M1806 709l-1734 -701l420 701l-420 700z" />
    <glyph glyph-name="a175" unicode="&#x27a5;" horiz-adv-x="1905" 
d="M1823 651l-697 -469v166h-712q-168 0 -250 91t-82 276v526h86v-8q0 -161 55.5 -221t202.5 -60h700v168z" />
    <glyph glyph-name="a176" unicode="&#x27a6;" horiz-adv-x="1907" 
d="M1823 772l-697 -469v168h-700q-147 0 -202.5 -60t-55.5 -221v-8h-86v527q0 183 82.5 274.5t249.5 91.5h712v166z" />
    <glyph glyph-name="a177" unicode="&#x27a7;" horiz-adv-x="948" 
d="M879 709l-543 -912v305h-266v1213h266v303z" />
    <glyph glyph-name="a178" unicode="&#x27a8;" horiz-adv-x="1808" 
d="M1747 696q-276 -43 -485.5 -180.5t-358.5 -374.5h-20v203h-822v725h822v203h20q149 -237 358.5 -374.5t485.5 -180.5v-21z" />
    <glyph glyph-name="a179" unicode="&#x27a9;" horiz-adv-x="1712" 
d="M1642 715l-526 -617h-287v320h-759v594h759v319h287zM1366 715l-475 555v-320h-760v-471h760v-319z" />
    <glyph glyph-name="a193" unicode="&#x27aa;" horiz-adv-x="1712" 
d="M1642 715l-526 -617h-287v320h-759v594h759v319h287zM1552 715l-475 555v-320h-760v-471h760v-319z" />
    <glyph glyph-name="a180" unicode="&#x27ab;" horiz-adv-x="1776" 
d="M1704 596l-922 -387v194h-710v271l372 373h793l135 167l332 -374v-244zM1653 821l-279 314l-112 -140h-797l-348 -350h868l-127 -160z" />
    <glyph glyph-name="a199" unicode="&#x27ac;" horiz-adv-x="1776" 
d="M1704 584l-332 -375l-135 168h-793l-372 373v270h710v194l922 -387v-243zM1653 602l-795 336l127 -160h-870l350 -350h797l112 -139z" />
    <glyph glyph-name="a181" unicode="&#x27ad;" horiz-adv-x="1425" 
d="M1360 666l-612 -584l-173 129v45h-335l-174 164v700h509v221zM1165 754l-528 454v-149h-510v-613h510v-198z" />
    <glyph glyph-name="a200" unicode="&#x27ae;" horiz-adv-x="1425" 
d="M1360 758l-785 -676v221h-509v701l174 163h335v45l173 129zM1165 670l-528 506v-199h-510v-612h510v-150z" />
    <glyph glyph-name="a182" unicode="&#x27af;" horiz-adv-x="1790" 
d="M1718 713l-563 -555v194h-936l-147 148l141 270l-141 313h1083v183zM1583 768l-373 367v-107h-1052l116 -260l-137 -260h1073v-105z" />
    <glyph glyph-name="a201" unicode="&#x27b1;" horiz-adv-x="1790" 
d="M1718 711l-563 -553v182h-1083l141 313l-141 271l147 147h936v195zM1583 655l-373 365v-105h-1073l137 -260l-116 -260h1052v-106z" />
    <glyph glyph-name="a183" unicode="&#x27b2;" horiz-adv-x="1556" 
d="M61 1120q10 132 181 218.5t434 86.5q163 0 310.5 -48.5t258.5 -139.5q124 -101 187 -233.5t63 -290.5t-63 -291t-187 -234q-112 -92 -261.5 -140t-321.5 -48q-253 0 -422.5 88t-178.5 217h740v-242l641 650l-641 649v-242h-740z" />
    <glyph glyph-name="a184" unicode="&#x27b3;" horiz-adv-x="1937" 
d="M1868 709q-134 -51 -223.5 -145t-139.5 -236q-39 41 -57 87t-18 107q0 50 17.5 89.5t55.5 72.5h-477l-250 -358h-706l268 383l-268 383h704l250 -359h479q-38 33 -55.5 72.5t-17.5 89.5q0 61 17.5 107t55.5 88q49 -141 139.5 -235.5t225.5 -145.5zM963 733l-213 307h-101
l213 -307h101zM803 733l-213 307h-101l213 -307h101zM639 733l-211 307h-100l213 -307h98zM963 682h-99l-215 -307h99zM479 733l-211 307h-100l213 -307h98zM803 682h-98l-216 -307h99zM641 682h-98l-215 -307h98zM481 682h-98l-215 -307h98z" />
    <glyph glyph-name="a197" unicode="&#x27b4;" horiz-adv-x="1579" 
d="M989 573l-538 420l-43 344l532 -415zM1538 96q-68 25 -135.5 37t-134.5 12q-58 0 -109 -8.5t-98 -25.5v6q0 58 40.5 108.5t108.5 75.5l-254 201l48 61l253 -201q11 77 48.5 124t103.5 69q-2 -20 -3 -33.5t-1 -25.5q0 -96 32.5 -194.5t100.5 -205.5zM942 512l-350 -35
l-533 414l344 41z" />
    <glyph glyph-name="a185" unicode="&#x27b5;" horiz-adv-x="1772" 
d="M1724 709q-137 -50 -233 -120t-154 -163q-19 27 -29 55t-10 58q0 34 10 66.5t29 64.5h-323v78h323q-19 31 -29 63.5t-10 67.5q0 29 10 57t29 55q56 -93 151 -162.5t236 -119.5zM995 748h-682l-245 243h673zM995 670l-252 -244h-675l245 244h682z" />
    </font>
</defs>
</svg>
